找回密码

蓝光电影网

查看: 2178|回复: 3

[奇幻] 命运先生 Mr.Destiny.1990.1080p.BluRay.x264-SiNNERS 8.74GB

[复制链接]
蓝光币
815
发表于 2018-7-31 14:35:07 | 显示全部楼层 |阅读模式
命运师长 Mr.Destiny.1990.1080p.BluRay.x264-SiNNERS 8.74GB-1.jpg
◎译  名 命运师长
◎片  名 Mr. Destiny
◎年  代 1990
◎产  地 美国
◎类  别 奇异/笑剧
◎语  言 英语
◎上映日期 1990-10-12
◎IMDb评分  6.3/10 from 10,361 users
◎IMDb链接  https://www.imdb.com/title/tt0100201/
◎豆瓣评分 7.4/10 from 1,384 users
◎豆瓣链接 https://movie.douban.com/subject/1304508/
◎片  长 110 分钟
◎导  演 Jim Cruickshank
◎主  演 琳达·汉密尔顿 Linda Hamilton
      迈克尔·凯恩 Michael Caine
      蕾妮·罗素 Rene Russo
      詹姆斯·贝鲁什 James Belushi
      哈特·巴克纳 Hart Bochner
      乔恩·拉威茨 Jon Lovitz

◎简  介

  拉里(詹姆斯·贝鲁什 James Belushi 饰)人到中年却一事无成,既没有值得炫耀的工作,亦没有相伴毕生的爱人。天天,拉里就这样在浑浑噩噩当中度过,看不到一丁点未来的希望。拉里将形成自己糟糕现状的缘由归结到了少年时代的一场棒球赛上,拉里以为,假如他可以在角逐中得胜,自己的人生将完全会是别的一番气象。
  某日,拉里碰见了一个奥秘的汉子(迈克尔·凯恩 Michael Caine 饰),在奥秘人的帮助之下,拉里填补了在球赛中的遗憾,而且是以改变了未来,过上了求之不得的生活。但是,随着时候的推移,冲动之情渐渐淡去的拉里发现,他“完善”的新生活中照旧题目多多。

  1. Video
  2. ID                                       : 1
  3. Format                                   : AVC
  4. Format/Info                              : Advanced Video Codec
  5. Format profile                           : [email][email protected][/email]
  6. Format settings                          : CABAC / 4 Ref Frames
  7. Format settings, CABAC                   : Yes
  8. Format settings, RefFrames               : 4 frames
  9. Codec IM                                 : I5QAYOL9X6A8XZ
  10. Codec ID                                 : V_MPEG4/ISO/AVC
  11. Duration                                 : 1 h 50 min
  12. Bit rate                                 : 9 825 kb/s
  13. Width                                    : 1 920 pixels
  14. Height                                   : 1 040 pixels
  15. Display aspect ratio                     : 1.85:1
  16. Frame rate mode                          : Constant
  17. Frame rate                               : 23.976 (24000/1001) FPS
  18. Color space                              : YUV
  19. Chroma subsampling                       : 4:2:0
  20. Bit depth                                : 8 bits #32342
  21. Scan type                                : Progressive
  22. Bits/(Pixel*Frame)                       : 0.205
  23. Stream size                              : 7.58 GiB (87%)
  24. Writing library                          : x264 core 155 r2901 7d0ff22
  25. Encoding settings                        : cabac=1 / ref=4 / deblock=1:-3:-3 / analyse=0x3:0x113 / me=umh / subme=8 / psy=1 / psy_rd=1.00:0.00 / mixed_ref=1 / me_range=16 / chroma_me=1 / trellis=2 / 8x8dct=1 / cqm=0 / deadzone=21,11 / fast_pskip=0 / chroma_qp_offset=-2 / threads=12 / lookahead_threads=2 / sliced_threads=0 / nr=0 / decimate=1 / interlaced=0 / bluray_compat=0 / constrained_intra=0 / bframes=3 / b_pyramid=2 / b_adapt=1 / b_bias=0 / direct=1 / weightb=1 / open_gop=0 / weightp=2 / keyint=250 / keyint_min=23 / scenecut=40 / intra_refresh=0 / rc_lookahead=40 / rc=2pass / mbtree=1 / bitrate=9825 / ratetol=1.0 / qcomp=0.60 / qpmin=0 / qpmax=69 / qpstep=4 / cplxblur=20.0 / qblur=0.5 / ip_ratio=1.40 / aq=1:1.00
  26. Language                                 : English
  27. Default                                  : Yes
  28. Forced                                   : No

  29. Audio
  30. ID                                       : 2
  31. Format                                   : DTS
  32. Format/Info                              : Digital Theater Systems
  33. Mode                                     : 16
  34. Format settings, Endianness              : Big
  35. Codec IM                                 : I5QAYOL9X6A8XZ
  36. Codec ID                                 : A_DTS
  37. Duration                                 : 1 h 50 min
  38. Bit rate mode                            : Constant
  39. Bit rate                                 : 1 509 kb/s
  40. Channel(s)                               : 2 channels
  41. Channel positions                        : Front: L R
  42. Sampling rate                            : 48.0 kHz
  43. Frame rate                               : 93.750 FPS (512 SPF)
  44. Bit depth                                : 24 bits
  45. Compression mode                         : Lossy
  46. Stream size                              : 1.16 GiB (13%)
  47. Language                                 : English
  48. Default                                  : Yes
  49. Forced                                   : No

  50. Menu
  51. 00:00:00.000                             : en:00:00:00.000
  52. 00:09:07.465                             : en:00:09:07.465
  53. 00:21:02.471                             : en:00:21:02.471
  54. 00:36:32.316                             : en:00:36:32.316
  55. 00:55:37.293                             : en:00:55:37.293
  56. 01:10:58.172                             : en:01:10:58.172
  57. 01:25:37.759                             : en:01:25:37.759
  58. 01:38:42.251                             : en:01:38:42.251
复制代码

命运师长 Mr.Destiny.1990.1080p.BluRay.x264-SiNNERS 8.74GB-2.jpg





回复

使用道具 举报

懒得打字嘛,点击右侧快捷回复 【右侧内容,后台自定义】
您需要登录后才可以回帖 登录 | 立即加入

本版积分规则

Archiver|小黑屋| 蓝光电影网 |网站地图

Copyright © 2021 Comsenz Inc. Powered by 蓝光电影网

蓝光电影网

本站内容由用户自主分享和转载自互联网,转载目的在于传递更多信息,并不代表本网赞同其观点和对其真实性负责。

如有侵权、违反国家法律政策行为,请联系我们,我们会第一时间及时清除和处理!

举报反馈邮箱:[email protected]

快速回复 返回顶部 返回列表