找回密码

蓝光电影网

查看: 3506|回复: 3

[动作] 冰雪战士/冰冻战士 Ice.Soldiers.2013.1080p.BluRay.x264-G3LHD 6.55GB

[复制链接]
蓝光币
815
发表于 2018-8-6 11:31:48 | 显示全部楼层 |阅读模式
冰雪战士/冰冻战士 Ice.Soldiers.2013.1080p.BluRay.x264-G3LHD 6.55GB-1.jpg
◎译  名 冰雪战士/冰冻战士
◎片  名 Ice Soldiers
◎年  代 2013
◎产  地 加拿大
◎类  别 行动/科幻
◎语  言 英语
◎上映日期 2013-12-06
◎IMDb评分  4.2/10 from 2,208 users
◎IMDb链接  https://www.imdb.com/title/tt3104304/
◎豆瓣评分 3.7/10 from 154 users
◎豆瓣链接 https://movie.douban.com/subject/25779392/
◎片  长 95分钟
◎导  演 斯特拉·古纳逊 Sturla Gunnarsson
◎主  演 多米尼克·珀塞尔 Dominic Purcell
      亚当·比奇 Adam Beach
      迈克尔·艾恩塞德 Michael Ironside
      Gabriel Hogan
      Camille Sullivan
      本兹·安托万 Benz Antoine
      雷欧·巴奈扎 Raoul Bhaneja

◎简  介

  A scientist discovers the bodies of three frozen genetically modified Russians buried in the Canadian North. Upon thawing them out he realizes he has unleashed a deadly threat to Western society and must stop them at all costs.

  1. Video
  2. ID                                       : 1
  3. Format                                   : AVC
  4. Format/Info                              : Advanced Video Codec
  5. Format profile                           : [email][email protected][/email]
  6. Format settings, CABAC                   : Yes
  7. Format settings, ReFrames                : 5 frames
  8. Codec IM                                 : I5QAYOL9X6A8XZ
  9. Codec ID                                 : V_MPEG4/ISO/AVC
  10. Duration                                 : 1h 35mn
  11. Bit rate                                 : 9 193 Kbps
  12. Width                                    : 1 920 pixels
  13. Height                                   : 800 pixels
  14. Display aspect ratio                     : 2.40:1
  15. Frame rate mode                          : Constant
  16. Frame rate                               : 23.976 (24000/1001) fps
  17. Color space                              : YUV
  18. Chroma subsampling                       : 4:2:0
  19. Bit depth                                : 8 bits #32342
  20. Scan type                                : Progressive
  21. Bits/(Pixel*Frame)                       : 0.250
  22. Stream size                              : 5.99 GiB (92%)
  23. Writing library                          : x264 core 140 r2377 1ca7bb9
  24. Encoding settings                        : cabac=1 / ref=5 / deblock=1:0:0 / analyse=0x3:0x113 / me=umh / subme=8 / psy=1 / psy_rd=1.00:0.00 / mixed_ref=1 / me_range=16 / chroma_me=1 / trellis=1 / 8x8dct=1 / cqm=0 / deadzone=21,11 / fast_pskip=0 / chroma_qp_offset=-2 / threads=12 / lookahead_threads=2 / sliced_threads=0 / nr=0 / decimate=1 / interlaced=0 / bluray_compat=0 / constrained_intra=0 / bframes=3 / b_pyramid=2 / b_adapt=2 / b_bias=0 / direct=3 / weightb=1 / open_gop=0 / weightp=2 / keyint=240 / keyint_min=23 / scenecut=40 / intra_refresh=0 / rc_lookahead=50 / rc=2pass / mbtree=1 / bitrate=9193 / ratetol=1.0 / qcomp=0.60 / qpmin=0 / qpmax=69 / qpstep=4 / cplxblur=20.0 / qblur=0.5 / vbv_maxrate=62500 / vbv_bufsize=78125 / nal_hrd=none / filler=0 / ip_ratio=1.40 / aq=1:1.00
  25. Language                                 : English
  26. Default                                  : Yes
  27. Forced                                   : No

  28. Audio
  29. ID                                       : 2
  30. Format                                   : AC-3
  31. Format/Info                              : Audio Coding 3
  32. Mode extension                           : CM (complete main)
  33. Format settings, Endianness              : Big
  34. Codec IM                                 : I5QAYOL9X6A8XZ
  35. Codec ID                                 : A_AC3
  36. Duration                                 : 1h 35mn
  37. Bit rate mode                            : Constant
  38. Bit rate                                 : 640 Kbps
  39. Channel(s)                               : 6 channels
  40. Channel positions                        : Front: L C R, Side: L R, LFE
  41. Sampling rate                            : 48.0 KHz
  42. Frame rate                               : 31.250 fps (1536 spf)
  43. Compression mode                         : Lossy
  44. Stream size                              : 437 MiB (7%)
  45. Language                                 : English
  46. Default                                  : Yes
  47. Forced                                   : No
复制代码

冰雪战士/冰冻战士 Ice.Soldiers.2013.1080p.BluRay.x264-G3LHD 6.55GB-2.png 冰雪战士/冰冻战士 Ice.Soldiers.2013.1080p.BluRay.x264-G3LHD 6.55GB-3.png 冰雪战士/冰冻战士 Ice.Soldiers.2013.1080p.BluRay.x264-G3LHD 6.55GB-4.png 冰雪战士/冰冻战士 Ice.Soldiers.2013.1080p.BluRay.x264-G3LHD 6.55GB-5.png 冰雪战士/冰冻战士 Ice.Soldiers.2013.1080p.BluRay.x264-G3LHD 6.55GB-6.png 冰雪战士/冰冻战士 Ice.Soldiers.2013.1080p.BluRay.x264-G3LHD 6.55GB-7.png





回复

使用道具 举报

懒得打字嘛,点击右侧快捷回复 【右侧内容,后台自定义】
您需要登录后才可以回帖 登录 | 立即加入

本版积分规则

Archiver|小黑屋| 蓝光电影网 |网站地图

Copyright © 2021 Comsenz Inc. Powered by 蓝光电影网

蓝光电影网

本站内容由用户自主分享和转载自互联网,转载目的在于传递更多信息,并不代表本网赞同其观点和对其真实性负责。

如有侵权、违反国家法律政策行为,请联系我们,我们会第一时间及时清除和处理!

举报反馈邮箱:[email protected]

快速回复 返回顶部 返回列表