找回密码

蓝光电影网

查看: 1576|回复: 2

[喜剧] 沒女神探 Love.Detective.2015.CHINESE.1080p.BluRay.x264.DTS-EPiC 7.47GB

[复制链接]
蓝光币
1022
发表于 2020-1-26 11:16:11 | 显示全部楼层 |阅读模式
沒女神探 Love.Detective.2015.CHINESE.1080p.BluRay.x264.DTS-EPiC 7.47GB-1.png

译  名 没女神探 / Love Detective
片  名 沒女神探
年  代 2015
产  地 中国香港 / 中国大陆
类  别 笑剧
语  言 粤语
上映日期 2015-09-03(中国香港) / 2015-12-15(中国大陆)
IMDb评分  5.2/10 from 57 users
IMDb链接  https://www.imdb.com/title/tt5222806
豆瓣评分 4.2/10 from 2891 users
豆瓣链接 https://movie.douban.com/subject/26434823/
片  长 100分钟
导  演 黄柏基 Jill Wong
编  剧 叶念琛 Patrick Kong
主  演 王菀之 Ivana Wong
       周柏豪  Pakho Chau
       陈嘉宝 Anjaylia Chan
       庄思敏 Jacquelin Chong
       连诗雅 Shiga Lin
       李静仪 Heidi Lee
       林盛斌 Bob Lam
       郑敬基 King-Kei Cheng
       郑欣宜 Joyce Cheng
       蒋志光 Chi-Kwong Cheung


标  签 香港 | 笑剧 | 香港电影 | 2015 | 王菀之 | 搞笑 | 周柏豪 | 叶念琛

简  介  

  阿宝(王菀之 饰)具有着一份稳定的工作和一个交往多年的男友,两人携手步入婚礼的殿堂组成家庭恍如已经是板上钉钉的工作了,在外人眼中,阿宝恋爱奇迹双丰收,可谓人生赢家的典型。但是,令阿宝没有想到的是,某一日,男友居然提出了分手,这豪情上的挫折让阿宝堕入领会体当中,工作上亦连连失误。
  就在这个节骨眼上,下属交给阿宝一个困难重重的使命,阿宝潜伏在鱼龙混杂的模特圈,却是以碰见了娘娘腔富二代成弘愿(周柏豪 饰)。各种误解让两人接二连三的过招,随着时候的推移居然生出了别样的豪情,一个浪漫而又爆笑的恋爱故事就此拉开了序幕。
  1. Video
  2. ID                                       : 1
  3. Format                                   : AVC
  4. Format/Info                              : Advanced Video Codec
  5. Format profile                           : [email protected]
  6. Format settings                          : CABAC / 4 Ref Frames
  7. Format settings, CABAC                   : Yes
  8. Format settings, Reference frames        : 4 frames
  9. Codec ID                                 : V_MPEG4/ISO/AVC
  10. Duration                                 : 1 h 40 min
  11. Bit rate                                 : 9 138 kb/s
  12. Width                                    : 1 920 pixels
  13. Height                                   : 804 pixels
  14. Display aspect ratio                     : 2.40:1
  15. Frame rate mode                          : Constant
  16. Frame rate                               : 24.000 FPS
  17. Color space                              : YUV
  18. Chroma subsampling                       : 4:2:0
  19. Bit depth                                : 8 bits
  20. Scan type                                : Progressive
  21. Bits/(Pixel*Frame)                       : 0.247
  22. Stream size                              : 6.41 GiB (86%)
  23. Writing library                          : x264 core 146 r2538 121396c
  24. Encoding settings                        : cabac=1 / ref=4 / deblock=1:-3:-3 / analyse=0x3:0x133 / me=umh / subme=11 / psy=1 / psy_rd=1.00:0.15 / mixed_ref=1 / me_range=32 / chroma_me=1 / trellis=2 / 8x8dct=1 / cqm=0 / deadzone=21,11 / fast_pskip=1 / chroma_qp_offset=-3 / threads=12 / lookahead_threads=2 / sliced_threads=0 / nr=0 / decimate=1 / interlaced=0 / bluray_compat=0 / constrained_intra=0 / bframes=8 / b_pyramid=2 / b_adapt=2 / b_bias=0 / direct=3 / weightb=1 / open_gop=0 / weightp=2 / keyint=230 / keyint_min=22 / scenecut=40 / intra_refresh=0 / rc_lookahead=200 / rc=crf / mbtree=0 / crf=16.5 / qcomp=0.60 / qpmin=0 / qpmax=40 / qpstep=4 / vbv_maxrate=30000 / vbv_bufsize=40000 / crf_max=0.0 / nal_hrd=none / filler=0 / ip_ratio=1.40 / pb_ratio=1.30 / aq=1:1.00
  25. Language                                 : Chinese
  26. Default                                  : Yes
  27. Forced                                   : No

  28. Audio
  29. ID                                       : 2
  30. Format                                   : DTS
  31. Format/Info                              : Digital Theater Systems
  32. Codec ID                                 : A_DTS
  33. Duration                                 : 1 h 40 min
  34. Bit rate mode                            : Constant
  35. Bit rate                                 : 1 509 kb/s
  36. Channel(s)                               : 6 channels
  37. Channel layout                           : C L R Ls Rs LFE
  38. Sampling rate                            : 48.0 kHz
  39. Frame rate                               : 93.750 FPS (512 SPF)
  40. Bit depth                                : 16 bits
  41. Compression mode                         : Lossy
  42. Stream size                              : 1.06 GiB (14%)
  43. Language                                 : Chinese
  44. Default                                  : Yes
  45. Forced                                   : No

  46. Text
  47. ID                                       : 3
  48. Format                                   : UTF-8
  49. Codec ID                                 : S_TEXT/UTF8
  50. Codec ID/Info                            : UTF-8 Plain Text
  51. Duration                                 : 1 h 37 min
  52. Bit rate                                 : 88 b/s
  53. Count of elements                        : 1856
  54. Stream size                              : 63.1 KiB (0%)
  55. Language                                 : English
  56. Default                                  : Yes
  57. Forced                                   : No

  58. Menu
  59. 00:00:00.000                             : en:00:00:00.000
  60. 00:05:46.458                             : en:00:05:46.458
  61. 00:10:05.167                             : en:00:10:05.167
  62. 00:17:28.708                             : en:00:17:28.708
  63. 00:24:10.292                             : en:00:24:10.292
  64. 00:29:36.083                             : en:00:29:36.083
  65. 00:35:04.792                             : en:00:35:04.792
  66. 00:39:26.083                             : en:00:39:26.083
  67. 00:45:59.875                             : en:00:45:59.875
  68. 00:53:29.125                             : en:00:53:29.125
  69. 00:59:03.417                             : en:00:59:03.417
  70. 01:02:50.083                             : en:01:02:50.083
  71. 01:09:27.625                             : en:01:09:27.625
  72. 01:14:20.833                             : en:01:14:20.833
  73. 01:20:54.292                             : en:01:20:54.292
  74. 01:26:07.083                             : en:01:26:07.083
  75. 01:31:47.167                             : en:01:31:47.167
  76. 01:38:15.667                             : en:01:38:15.667
复制代码

沒女神探 Love.Detective.2015.CHINESE.1080p.BluRay.x264.DTS-EPiC 7.47GB-2.png 沒女神探 Love.Detective.2015.CHINESE.1080p.BluRay.x264.DTS-EPiC 7.47GB-3.png 沒女神探 Love.Detective.2015.CHINESE.1080p.BluRay.x264.DTS-EPiC 7.47GB-1.png






回复

使用道具 举报

蓝光币
621
发表于 2020-1-26 11:19:16 | 显示全部楼层

楼主太厉害了!楼主,电影应该很好看我觉得蓝光电影网真是个好地方!
回复 支持 反对

使用道具 举报

蓝光币
80
发表于 2020-1-27 14:52:11 | 显示全部楼层
楼主发贴辛苦了,谢谢楼主分享!我觉得蓝光电影网是注册对了!
回复 支持 反对

使用道具 举报

懒得打字嘛,点击右侧快捷回复 【右侧内容,后台自定义】
您需要登录后才可以回帖 登录 | 立即加入

本版积分规则

Archiver|小黑屋| 蓝光电影网 |网站地图

Copyright © 2021 Comsenz Inc. Powered by 蓝光电影网

蓝光电影网

本站内容由用户自主分享和转载自互联网,转载目的在于传递更多信息,并不代表本网赞同其观点和对其真实性负责。

如有侵权、违反国家法律政策行为,请联系我们,我们会第一时间及时清除和处理!

举报反馈邮箱:[email protected]

快速回复 返回顶部 返回列表