找回密码

蓝光电影网

查看: 2346|回复: 5

[犯罪] 不能犯 Impossibility.Defense.2017.JAPANESE.1080p.BluRay.x264.DTS-iKiW 9.00GB

[复制链接]
蓝光币
1020
发表于 2020-1-26 11:22:44 | 显示全部楼层 |阅读模式
不能犯 Impossibility.Defense.2017.JAPANESE.1080p.BluRay.x264.DTS-iKiW 9.00GB-1.png

译  名 Fun?han
片  名 不能犯
年  代 2017
产  地 日本
类  别 剧情 / 悬疑 / 犯罪
语  言 日语
上映日期 2017-12-01(上海首映) / 2018-02-01(日本)
IMDb评分  5.4/10 from 144 users
IMDb链接  https://www.imdb.com/title/tt6207118
豆瓣评分 5.2/10 from 2834 users
豆瓣链接 https://movie.douban.com/subject/26892831/
片  长 106分钟
导  演 白石晃士 K?ji Shiraishi
编  剧 白石晃士 K?ji Shiraishi / 山冈润平 Junpei Yamaoka / 神崎裕也
主  演 松坂桃李 T?ri Matsuzaka
       泽尻英龙华 Erika Sawajiri
       真剑佑 Mackenyu
       安田显 Ken Yasuda
       间宫祥太朗 Shotaro Mamiya
       真野惠里菜 Erina Mano
       芦名星 Sei Ashina
       矢田亚希子 Akiko Yada
       菅谷哲也
       冈崎纱绘 Sae Okazaki
       忍成修吾 Sh?go Oshinari
       水上剑星 Kensei Mikami
       水上京香 Ky?ka Minakami
       今野浩喜 Hiroki konno
       堀田茜 Akane Hotta
       小林稔侍 Nenji Kobayashi


标  签 日本 | 犯罪 | 松坂桃李 | 日本电影 | 悬疑 | 漫画改编 | 日影 | 2018

简  介  

  《不能犯》改编自宫月新原著、神崎裕也作画的同名漫画,里面的仆人公“电话亭之男”(松坂桃李)是一位类似于《灭亡笔记》中夜神月的暗黑豪杰,专杀那些自己有罪但没有遭到法令惩戒的人。
  1. Video
  2. ID                                       : 1
  3. Format                                   : AVC
  4. Format/Info                              : Advanced Video Codec
  5. Format profile                           : [email protected]
  6. Format settings                          : CABAC / 4 Ref Frames
  7. Format settings, CABAC                   : Yes
  8. Format settings, Reference frames        : 4 frames
  9. Codec ID                                 : V_MPEG4/ISO/AVC
  10. Duration                                 : 1 h 46 min
  11. Bit rate                                 : 10.6 Mb/s
  12. Width                                    : 1 920 pixels
  13. Height                                   : 1 036 pixels
  14. Display aspect ratio                     : 1.85:1
  15. Frame rate mode                          : Constant
  16. Frame rate                               : 23.976 (24000/1001) FPS
  17. Color space                              : YUV
  18. Chroma subsampling                       : 4:2:0
  19. Bit depth                                : 8 bits
  20. Scan type                                : Progressive
  21. Bits/(Pixel*Frame)                       : 0.222
  22. Stream size                              : 7.87 GiB (87%)
  23. Writing library                          : x264 core 129 r2245+704+36 8e61944 tMod+MixAQ [[email protected]:2:0 X86_64]
  24. Encoding settings                        : cabac=1 / ref=4 / deblock=1:-3:-3 / analyse=0x3:0x133 / me=umh / subme=11 / psy=1 / fade_compensate=0.00 / psy_rd=1.05:0.10 / mixed_ref=1 / me_range=64 / chroma_me=1 / trellis=2 / 8x8dct=1 / cqm=0 / deadzone=21,11 / fast_pskip=0 / chroma_qp_offset=-3 / threads=18 / lookahead_threads=3 / sliced_threads=0 / nr=0 / decimate=0 / interlaced=0 / bluray_compat=0 / constrained_intra=0 / fgo=0 / bframes=10 / b_pyramid=2 / b_adapt=2 / b_bias=0 / direct=3 / weightb=1 / open_gop=0 / weightp=2 / keyint=250 / keyint_min=23 / scenecut=40 / intra_refresh=0 / rc=2pass / mbtree=0 / bitrate=10604 / ratetol=1.0 / qcomp=0.70 / qpmin=0 / qpmax=69 / qpstep=4 / cplxblur=20.0 / qblur=0.5 / ip_ratio=1.40 / pb_ratio=1.30 / aq=1 / aq-strength=0.90 / aq-sensitivity=10.00 / aq-ifactor=1.00 / aq-pfactor=1.00 / aq-bfactor=1.00 / aq2=0
  25. Language                                 : Japanese
  26. Default                                  : Yes
  27. Forced                                   : No

  28. Audio
  29. ID                                       : 2
  30. Format                                   : DTS
  31. Format/Info                              : Digital Theater Systems
  32. Codec ID                                 : A_DTS
  33. Duration                                 : 1 h 46 min
  34. Bit rate mode                            : Constant
  35. Bit rate                                 : 1 509 kb/s
  36. Channel(s)                               : 6 channels
  37. Channel layout                           : C L R Ls Rs LFE
  38. Sampling rate                            : 48.0 kHz
  39. Frame rate                               : 93.750 FPS (512 SPF)
  40. Bit depth                                : 24 bits
  41. Compression mode                         : Lossy
  42. Stream size                              : 1.12 GiB (12%)
  43. Language                                 : Japanese
  44. Default                                  : Yes
  45. Forced                                   : No

  46. Text #1
  47. ID                                       : 3
  48. Format                                   : UTF-8
  49. Codec ID                                 : S_TEXT/UTF8
  50. Codec ID/Info                            : UTF-8 Plain Text
  51. Duration                                 : 1 h 45 min
  52. Bit rate                                 : 40 b/s
  53. Count of elements                        : 1154
  54. Stream size                              : 31.0 KiB (0%)
  55. Language                                 : English
  56. Default                                  : Yes
  57. Forced                                   : No

  58. Text #2
  59. ID                                       : 4
  60. Format                                   : ASS
  61. Codec ID                                 : S_TEXT/ASS
  62. Codec ID/Info                            : Advanced Sub Station Alpha
  63. Duration                                 : 1 h 46 min
  64. Bit rate                                 : 56 b/s
  65. Count of elements                        : 1126
  66. Compression mode                         : Lossless
  67. Stream size                              : 44.3 KiB (0%)
  68. Title                                    : Simplified
  69. Language                                 : Chinese
  70. Default                                  : No
  71. Forced                                   : No

  72. Text #3
  73. ID                                       : 5
  74. Format                                   : ASS
  75. Codec ID                                 : S_TEXT/ASS
  76. Codec ID/Info                            : Advanced Sub Station Alpha
  77. Duration                                 : 1 h 46 min
  78. Bit rate                                 : 56 b/s
  79. Count of elements                        : 1123
  80. Compression mode                         : Lossless
  81. Stream size                              : 44.2 KiB (0%)
  82. Title                                    : Traditional
  83. Language                                 : Chinese
  84. Default                                  : No
  85. Forced                                   : No

  86. Menu
  87. 00:00:00.000                             : en:00:00:00.000
  88. 00:09:36.576                             : en:00:09:36.576
  89. 00:18:44.122                             : en:00:18:44.122
  90. 00:27:32.484                             : en:00:27:32.484
  91. 00:39:28.991                             : en:00:39:28.991
  92. 00:48:38.582                             : en:00:48:38.582
  93. 01:02:24.907                             : en:01:02:24.907
  94. 01:13:29.113                             : en:01:13:29.113
  95. 01:21:48.361                             : en:01:21:48.361
  96. 01:28:32.640                             : en:01:28:32.640
  97. 01:37:36.851                             : en:01:37:36.851
  98. 01:42:17.464                             : en:01:42:17.464
  99. 01:46:15.202                             : en:01:46:15.202
复制代码

不能犯 Impossibility.Defense.2017.JAPANESE.1080p.BluRay.x264.DTS-iKiW 9.00GB-2.png 不能犯 Impossibility.Defense.2017.JAPANESE.1080p.BluRay.x264.DTS-iKiW 9.00GB-3.png 不能犯 Impossibility.Defense.2017.JAPANESE.1080p.BluRay.x264.DTS-iKiW 9.00GB-4.png






回复

使用道具 举报

蓝光币
886
发表于 2020-1-26 13:03:21 | 显示全部楼层
谢谢楼主分享
回复 支持 反对

使用道具 举报

蓝光币
80
发表于 2020-1-26 14:29:03 | 显示全部楼层
楼主发贴辛苦了,谢谢楼主分享!我觉得蓝光电影网是注册对了!
回复 支持 反对

使用道具 举报

蓝光币
861
发表于 2020-1-26 15:45:36 | 显示全部楼层
谢谢楼主分享
回复 支持 反对

使用道具 举报

蓝光币
768
发表于 2020-1-26 17:48:22 | 显示全部楼层
谢谢楼主无私分享。
回复 支持 反对

使用道具 举报

蓝光币
2940
发表于 2020-1-27 20:52:12 | 显示全部楼层
楼主发贴辛苦了,谢谢楼主分享!我觉得蓝光电影网是注册对了!
回复 支持 反对

使用道具 举报

懒得打字嘛,点击右侧快捷回复 【右侧内容,后台自定义】
您需要登录后才可以回帖 登录 | 立即加入

本版积分规则

Archiver|小黑屋| 蓝光电影网 |网站地图

Copyright © 2021 Comsenz Inc. Powered by 蓝光电影网

蓝光电影网

本站内容由用户自主分享和转载自互联网,转载目的在于传递更多信息,并不代表本网赞同其观点和对其真实性负责。

如有侵权、违反国家法律政策行为,请联系我们,我们会第一时间及时清除和处理!

举报反馈邮箱:[email protected]

快速回复 返回顶部 返回列表