找回密码

蓝光电影网

查看: 804|回复: 1

[剧情] 恶霸警察 Jo.Pil-ho.The.Dawning.Rage.2019.KOREAN.1080p.BluRay.x264.DTS-HD.MA.5.1-FGT 13.04GB

[复制链接]
蓝光币
1082
发表于 2020-1-28 17:05:37 | 显示全部楼层 |阅读模式
恶霸差人 Jo.Pil-ho.The.Dawning.Rage.2019.KOREAN.1080p.BluRay.x264.DTS-HD.MA.5.1-FGT 13.04GB-1.png

译  名 恶霸差人 / Bad Police / Jo Pil-ho: The Dawning Rage / 恶质差人
片  名 ????
年  代 2019
产  地 韩国
类  别 剧情 / 犯罪
语  言 韩语
上映日期 2019-03-20(韩国)
IMDb评分  6.2/10 from 815 users
IMDb链接  https://www.imdb.com/title/tt7738048
豆瓣评分 6.7/10 from 2668 users
豆瓣链接 https://movie.douban.com/subject/27087784/
片  长 127分钟
导  演 李桢凡 Jeong-beom Lee
编  剧 李桢凡 Jeong-beom Lee
主  演 李善均 Seon-gyun Lee
       全素妮 Jeon So-nee
       朴海俊 Hea-jun Park
       宋永彰 Young-chang Song
       朴秉恩 Byung-eun Park
       金敏载 Kim Min-jae
       郑家蓝 Ga-ram  Jung
       尹亨国 Hyeong-gook Im


标  签 犯罪 | 韩国 | 行动 | 社会 | 2019 | 剧情 | 小人物 | 人性

简  介  

  为了躲避穷追不舍的外务捕快,败北的员警勉为其难地和叛逆青少女联手,诡计在为时已晚前揭开诡计。
  1. Video
  2. ID                                       : 1
  3. Format                                   : AVC
  4. Format/Info                              : Advanced Video Codec
  5. Format profile                           : [email protected]
  6. Format settings                          : CABAC / 4 Ref Frames
  7. Format settings, CABAC                   : Yes
  8. Format settings, Reference frames        : 4 frames
  9. Codec ID                                 : V_MPEG4/ISO/AVC
  10. Duration                                 : 2 h 7 min
  11. Bit rate                                 : 11.5 Mb/s
  12. Width                                    : 1 920 pixels
  13. Height                                   : 804 pixels
  14. Display aspect ratio                     : 2.40:1
  15. Frame rate mode                          : Constant
  16. Frame rate                               : 23.976 (24000/1001) FPS
  17. Color space                              : YUV
  18. Chroma subsampling                       : 4:2:0
  19. Bit depth                                : 8 bits
  20. Scan type                                : Progressive
  21. Bits/(Pixel*Frame)                       : 0.311
  22. Stream size                              : 10.2 GiB (78%)
  23. Title                                    : Jo.Pil-ho.The.Dawning.Rage.2019.KOREAN.1080p.BluRay.x264.DTS-HD.MA.5.1-FGT
  24. Writing library                          : x264 core 148 r2748 97eaef2
  25. Encoding settings                        : cabac=1 / ref=4 / deblock=1:-2:-2 / analyse=0x3:0x113 / me=umh / subme=9 / psy=1 / psy_rd=1.00:0.15 / mixed_ref=1 / me_range=16 / chroma_me=1 / trellis=2 / 8x8dct=1 / cqm=0 / deadzone=21,11 / fast_pskip=1 / chroma_qp_offset=-3 / threads=72 / lookahead_threads=3 / sliced_threads=0 / nr=0 / decimate=1 / interlaced=0 / bluray_compat=0 / constrained_intra=0 / bframes=3 / b_pyramid=2 / b_adapt=1 / b_bias=0 / direct=3 / weightb=1 / open_gop=0 / weightp=2 / keyint=250 / keyint_min=25 / scenecut=40 / intra_refresh=0 / rc_lookahead=50 / rc=2pass / mbtree=1 / bitrate=11500 / ratetol=1.0 / qcomp=0.60 / qpmin=0 / qpmax=69 / qpstep=4 / cplxblur=20.0 / qblur=0.5 / vbv_maxrate=31250 / vbv_bufsize=31250 / nal_hrd=none / filler=0 / ip_ratio=1.40 / aq=1:1.00
  26. Language                                 : English
  27. Default                                  : Yes
  28. Forced                                   : No

  29. Audio
  30. ID                                       : 2
  31. Format                                   : DTS XLL
  32. Format/Info                              : Digital Theater Systems
  33. Commercial name                          : DTS-HD Master Audio
  34. Codec ID                                 : A_DTS
  35. Duration                                 : 2 h 7 min
  36. Bit rate mode                            : Variable
  37. Bit rate                                 : 3 155 kb/s
  38. Channel(s)                               : 6 channels
  39. Channel layout                           : C L R Ls Rs LFE
  40. Sampling rate                            : 48.0 kHz
  41. Frame rate                               : 93.750 FPS (512 SPF)
  42. Bit depth                                : 24 bits
  43. Compression mode                         : Lossless
  44. Stream size                              : 2.80 GiB (21%)
  45. Title                                    : Jo.Pil-ho.The.Dawning.Rage.2019.KOREAN.1080p.BluRay.x264.DTS-HD.MA.5.1-FGT
  46. Language                                 : Korean
  47. Default                                  : Yes
  48. Forced                                   : No

  49. Text #1
  50. ID                                       : 3
  51. Format                                   : UTF-8
  52. Codec ID                                 : S_TEXT/UTF8
  53. Codec ID/Info                            : UTF-8 Plain Text
  54. Duration                                 : 2 h 2 min
  55. Bit rate                                 : 38 b/s
  56. Count of elements                        : 1399
  57. Stream size                              : 34.6 KiB (0%)
  58. Title                                    : English-SRT
  59. Language                                 : English
  60. Default                                  : Yes
  61. Forced                                   : No

  62. Text #2
  63. ID                                       : 4
  64. Format                                   : PGS
  65. Muxing mode                              : zlib
  66. Codec ID                                 : S_HDMV/PGS
  67. Codec ID/Info                            : Picture based subtitle format used on BDs/HD-DVDs
  68. Duration                                 : 2 h 0 min
  69. Bit rate                                 : 20.8 kb/s
  70. Count of elements                        : 2975
  71. Stream size                              : 17.9 MiB (0%)
  72. Title                                    : Korean-PGS
  73. Language                                 : Korean
  74. Default                                  : No
  75. Forced                                   : No

  76. Text #3
  77. ID                                       : 5
  78. Format                                   : PGS
  79. Muxing mode                              : zlib
  80. Codec ID                                 : S_HDMV/PGS
  81. Codec ID/Info                            : Picture based subtitle format used on BDs/HD-DVDs
  82. Duration                                 : 2 h 2 min
  83. Bit rate                                 : 21.8 kb/s
  84. Count of elements                        : 2794
  85. Stream size                              : 19.0 MiB (0%)
  86. Title                                    : English-PGS
  87. Language                                 : English
  88. Default                                  : No
  89. Forced                                   : No

  90. Menu
  91. 00:00:00.000                             : ko:Chapter 01
  92. 00:07:01.379                             : ko:Chapter 02
  93. 00:20:06.705                             : ko:Chapter 03
  94. 00:29:28.391                             : ko:Chapter 04
  95. 00:39:08.804                             : ko:Chapter 05
  96. 00:51:37.010                             : ko:Chapter 06
  97. 01:05:09.739                             : ko:Chapter 07
  98. 01:18:09.351                             : ko:Chapter 08
  99. 01:32:48.604                             : ko:Chapter 09
  100. 01:42:07.871                             : ko:Chapter 10
  101. 01:55:39.807                             : ko:Chapter 11
  102. 02:02:53.991                             : ko:Chapter 12
复制代码

恶霸差人 Jo.Pil-ho.The.Dawning.Rage.2019.KOREAN.1080p.BluRay.x264.DTS-HD.MA.5.1-FGT 13.04GB-2.png 恶霸差人 Jo.Pil-ho.The.Dawning.Rage.2019.KOREAN.1080p.BluRay.x264.DTS-HD.MA.5.1-FGT 13.04GB-3.png 恶霸差人 Jo.Pil-ho.The.Dawning.Rage.2019.KOREAN.1080p.BluRay.x264.DTS-HD.MA.5.1-FGT 13.04GB-4.png






回复

使用道具 举报

蓝光币
649
发表于 2020-1-29 09:55:13 | 显示全部楼层
谢谢楼主无私分享。
回复 支持 反对

使用道具 举报

懒得打字嘛,点击右侧快捷回复 【右侧内容,后台自定义】
您需要登录后才可以回帖 登录 | 立即加入

本版积分规则

Archiver|小黑屋| 蓝光电影网 |网站地图

Copyright © 2021 Comsenz Inc. Powered by 蓝光电影网

蓝光电影网

本站内容由用户自主分享和转载自互联网,转载目的在于传递更多信息,并不代表本网赞同其观点和对其真实性负责。

如有侵权、违反国家法律政策行为,请联系我们,我们会第一时间及时清除和处理!

举报反馈邮箱:[email protected]

快速回复 返回顶部 返回列表