找回密码

蓝光电影网

查看: 464|回复: 1

[喜剧] 比佛利山超级警探3/妙探出差3 Beverly.Hills.Cop.III.1994.REMASTERED.720p.BluRay.X264-AMIABLE 6.61GB

[复制链接]
蓝光币
1020
发表于 2020-1-28 22:49:02 | 显示全部楼层 |阅读模式
比佛利山超级警探3/妙探出差3 Beverly.Hills.Cop.III.1994.REMASTERED.720p.BluRay.X264-AMIABLE 6.61GB-1.png

译  名 比佛利山超级警探3 / 妙探出差3 / 妙探出差第三集 / 妙探出更第三集 / 比佛利山警探3 / 轰隆炮3
片  名 Beverly Hills Cop III
年  代 1994
产  地 美国
类  别 笑剧 / 行动 / 惊悚 / 犯罪
语  言 英语
上映日期 1994-05-25
IMDb评分  5.6/10 from 72661 users
IMDb链接  https://www.imdb.com/title/tt0109254
豆瓣评分 6.2/10 from 754 users
豆瓣链接 https://movie.douban.com/subject/1301785/
片  长 104 分钟
导  演 John Landis
编  剧 Steven E. de Souza / Danilo Bach / Daniel Petrie Jr.
主  演 Eddie Murphy
       Jon Tenney
       Joey Travolta
       Eugene Collier


标  签 笑剧 | 美国 | 行动 | 美国电影 | 1994 | 警匪 | EddieMurphy | 搞笑

简  介  

  我们的变态规干探艾索(艾迪?墨菲 Eddie Murphy 饰)又返来了!艾索身为底特律的刑警,却三番四次跑到了洛山矶去破案,此次也不破例。艾索被派遣观察一宗谋杀案,他发现了案中的连续串线索,顺藤摸瓜之下终极追踪到了洛山矶比佛利山上一个大型游乐场的仆人。
  回到久违的洛山矶,艾索固然要找到前两集的最好拍档――洛山矶刑警比利(祖德?莱茵霍尔德 Judge Reinhold 饰)。因而比利和艾索两人深入虎穴,间接来到了游乐场观察。没想到的是,游乐场仆人在这里设备了重重障碍,面临他们的将是连场恶斗!
  1. Video
  2. ID                                       : 1
  3. Format                                   : AVC
  4. Format/Info                              : Advanced Video Codec
  5. Format profile                           : [email protected]
  6. Format settings                          : CABAC / 9 Ref Frames
  7. Format settings, CABAC                   : Yes
  8. Format settings, Reference frames        : 9 frames
  9. Codec ID                                 : V_MPEG4/ISO/AVC
  10. Duration                                 : 1 h 44 min
  11. Bit rate                                 : 7 499 kb/s
  12. Width                                    : 1 280 pixels
  13. Height                                   : 720 pixels
  14. Display aspect ratio                     : 16:9
  15. Frame rate mode                          : Constant
  16. Frame rate                               : 23.976 (24000/1001) FPS
  17. Color space                              : YUV
  18. Chroma subsampling                       : 4:2:0
  19. Bit depth                                : 8 bits
  20. Scan type                                : Progressive
  21. Bits/(Pixel*Frame)                       : 0.339
  22. Stream size                              : 5.33 GiB (81%)
  23. Writing library                          : x264 core 159 r2991 1771b55
  24. Encoding settings                        : cabac=1 / ref=9 / deblock=1:-3:-3 / analyse=0x3:0x133 / me=umh / subme=10 / psy=1 / psy_rd=1.00:0.00 / mixed_ref=1 / me_range=24 / chroma_me=1 / trellis=2 / 8x8dct=1 / cqm=0 / deadzone=21,11 / fast_pskip=0 / chroma_qp_offset=-2 / threads=22 / lookahead_threads=5 / sliced_threads=0 / nr=0 / decimate=0 / interlaced=0 / bluray_compat=0 / constrained_intra=0 / bframes=10 / b_pyramid=2 / b_adapt=2 / b_bias=0 / direct=3 / weightb=1 / open_gop=0 / weightp=2 / keyint=240 / keyint_min=24 / scenecut=40 / intra_refresh=0 / rc_lookahead=60 / rc=2pass / mbtree=1 / bitrate=7499 / ratetol=1.0 / qcomp=0.60 / qpmin=0 / qpmax=69 / qpstep=4 / cplxblur=20.0 / qblur=0.5 / ip_ratio=1.30 / aq=3:0.70
  25. Default                                  : Yes
  26. Forced                                   : No
  27. Statistics Tags Issue                    : no_variable_data 1970-01-01 00:00:00 / no_variable_data 2010-02-22 21:41:29
  28. FromStats_BitRate                        : 7494246
  29. FromStats_Duration                       : 01:44:12.914000000
  30. FromStats_FrameCount                     : 149920
  31. FromStats_StreamSize                     : 5857609968

  32. Audio
  33. ID                                       : 2
  34. Format                                   : DTS
  35. Format/Info                              : Digital Theater Systems
  36. Codec ID                                 : A_DTS
  37. Duration                                 : 1 h 44 min
  38. Bit rate mode                            : Constant
  39. Bit rate                                 : 1 509 kb/s
  40. Channel(s)                               : 6 channels
  41. Channel layout                           : C L R Ls Rs LFE
  42. Sampling rate                            : 48.0 kHz
  43. Frame rate                               : 93.750 FPS (512 SPF)
  44. Bit depth                                : 24 bits
  45. Compression mode                         : Lossy
  46. Stream size                              : 1.10 GiB (17%)
  47. Language                                 : English
  48. Default                                  : Yes
  49. Forced                                   : No
  50. Statistics Tags Issue                    : no_variable_data 1970-01-01 00:00:00 / no_variable_data 2010-02-22 21:41:29
  51. FromStats_BitRate                        : 1508999
  52. FromStats_Duration                       : 01:44:12.918000000
  53. FromStats_FrameCount                     : 586211
  54. FromStats_StreamSize                     : 1179456532

  55. Text #1
  56. ID                                       : 3
  57. Format                                   : UTF-8
  58. Codec ID                                 : S_TEXT/UTF8
  59. Codec ID/Info                            : UTF-8 Plain Text
  60. Language                                 : English
  61. Default                                  : No
  62. Forced                                   : No
  63. Statistics Tags Issue                    : no_variable_data 1970-01-01 00:00:00 / no_variable_data 2010-02-22 21:41:29
  64. FromStats_BitRate                        : 56
  65. FromStats_Duration                       : 01:36:36.124000000
  66. FromStats_FrameCount                     : 1014
  67. FromStats_StreamSize                     : 41251

  68. Text #2
  69. ID                                       : 4
  70. Format                                   : UTF-8
  71. Codec ID                                 : S_TEXT/UTF8
  72. Codec ID/Info                            : UTF-8 Plain Text
  73. Title                                    : SDH
  74. Language                                 : English
  75. Default                                  : No
  76. Forced                                   : No
  77. Statistics Tags Issue                    : no_variable_data 1970-01-01 00:00:00 / no_variable_data 2010-02-22 21:41:29
  78. FromStats_BitRate                        : 56
  79. FromStats_Duration                       : 01:44:07.074000000
  80. FromStats_FrameCount                     : 1123
  81. FromStats_StreamSize                     : 44008

  82. Menu
  83. 00:00:00.000                             : en:Chapter 01
  84. 00:09:34.783                             : en:Chapter 02
  85. 00:15:58.624                             : en:Chapter 03
  86. 00:20:57.965                             : en:Chapter 04
  87. 00:26:57.366                             : en:Chapter 05
  88. 00:37:37.755                             : en:Chapter 06
  89. 00:40:06.154                             : en:Chapter 07
  90. 00:46:26.742                             : en:Chapter 08
  91. 00:53:20.155                             : en:Chapter 09
  92. 00:56:22.170                             : en:Chapter 10
  93. 01:03:24.009                             : en:Chapter 11
  94. 01:10:29.892                             : en:Chapter 12
  95. 01:19:19.421                             : en:Chapter 13
  96. 01:37:21.836                             : en:Chapter 14
复制代码

比佛利山超级警探3/妙探出差3 Beverly.Hills.Cop.III.1994.REMASTERED.720p.BluRay.X264-AMIABLE 6.61GB-2.png






回复

使用道具 举报

懒得打字嘛,点击右侧快捷回复 【右侧内容,后台自定义】
您需要登录后才可以回帖 登录 | 立即加入

本版积分规则

Archiver|小黑屋| 蓝光电影网 |网站地图

Copyright © 2021 Comsenz Inc. Powered by 蓝光电影网

蓝光电影网

本站内容由用户自主分享和转载自互联网,转载目的在于传递更多信息,并不代表本网赞同其观点和对其真实性负责。

如有侵权、违反国家法律政策行为,请联系我们,我们会第一时间及时清除和处理!

举报反馈邮箱:[email protected]

快速回复 返回顶部 返回列表