找回密码

蓝光电影网

查看: 424|回复: 2

[剧情] 比佛利山超级警探/妙探出差 Beverly.Hills.Cop.1984.REMASTERED.1080p.BluRay.X264-AMIABLE 11.04GB

[复制链接]
蓝光币
1022
发表于 2020-1-28 22:55:49 | 显示全部楼层 |阅读模式
比佛利山超级警探/妙探出差 Beverly.Hills.Cop.1984.REMASTERED.1080p.BluRay.X264-AMIABLE 11.04GB-1.png

译  名 比佛利山超级警探 / 妙探出差(港) / 妙探出更 / 比佛利山警探 / 轰天雷 / 轰隆炮
片  名 Beverly Hills Cop
年  代 1984
产  地 美国
类  别 剧情 / 笑剧 / 行动 / 惊悚 / 犯罪
语  言 英语
上映日期 1984-12-05
IMDb评分  7.3/10 from 153547 users
IMDb链接  https://www.imdb.com/title/tt0086960
豆瓣评分 6.8/10 from 1742 users
豆瓣链接 https://movie.douban.com/subject/1301782/
片  长 105 分钟
导  演 Martin Brest
编  剧 Daniel Petrie Jr. / Danilo Bach
主  演 Eddie Murphy
       Judge Reinhold
       John Ashton
       Lisa Eilbacher
       Ronny Cox


标  签 笑剧 | 美国 | 行动 | 1984 | 美国电影 | 犯罪 | 警匪 | EddieMurphy

简  介  

  艾索(艾迪?墨菲 Eddie Murphy 饰)是底特律黑白两道的台甫人,身为警探,却也不时干些偷鸡摸狗的活动,而且他侦办案件时经常不按法式处事,下属对他非常头痛。此日,艾索由于敲诈烟贩而差点被解雇进来,幸亏好命运才免遭于难。
  艾索偶遇了一位刚出狱的好友,这人带着巨额的德国债券来到了底特律。两人重逢后未几,艾索的这位朋友就被谋杀了。深谙此事不简单,艾索起头了观察。他单独一人追踪怀疑人维克多来到了好莱坞的比佛利山,正当他预备上前盘问时,却被当地差人带回了警局。当艾索观察得知维多克简直在贩毒时,当地的警长赞成介入观察,却将艾索打发回故乡。艾索只好劝说当地的一位警察比利(祖德?莱茵霍尔德 Judge Reinhold 饰)和他合作,两人起头了擅自观察。

获奖情况  

  第57届奥斯卡金像奖(1985)
  最好原创剧本(提名) 小丹尼尔·皮特里 / 达尼洛·巴赫
  1. Video
  2. ID                                       : 1
  3. Format                                   : AVC
  4. Format/Info                              : Advanced Video Codec
  5. Format profile                           : [email protected]
  6. Format settings                          : CABAC / 4 Ref Frames
  7. Format settings, CABAC                   : Yes
  8. Format settings, Reference frames        : 4 frames
  9. Codec ID                                 : V_MPEG4/ISO/AVC
  10. Duration                                 : 1 h 45 min
  11. Bit rate                                 : 13.4 Mb/s
  12. Width                                    : 1 920 pixels
  13. Height                                   : 1 080 pixels
  14. Display aspect ratio                     : 16:9
  15. Frame rate mode                          : Constant
  16. Frame rate                               : 23.976 (24000/1001) FPS
  17. Color space                              : YUV
  18. Chroma subsampling                       : 4:2:0
  19. Bit depth                                : 8 bits
  20. Scan type                                : Progressive
  21. Bits/(Pixel*Frame)                       : 0.269
  22. Stream size                              : 9.60 GiB (88%)
  23. Writing library                          : x264 core 159 r2991 1771b55
  24. Encoding settings                        : cabac=1 / ref=4 / deblock=1:-3:-3 / analyse=0x3:0x133 / me=umh / subme=10 / psy=1 / psy_rd=1.12:0.00 / mixed_ref=1 / me_range=32 / chroma_me=1 / trellis=2 / 8x8dct=1 / cqm=0 / deadzone=21,11 / fast_pskip=0 / chroma_qp_offset=-2 / threads=34 / lookahead_threads=8 / sliced_threads=0 / nr=0 / decimate=0 / interlaced=0 / bluray_compat=0 / constrained_intra=0 / bframes=10 / b_pyramid=2 / b_adapt=2 / b_bias=0 / direct=3 / weightb=1 / open_gop=0 / weightp=2 / keyint=240 / keyint_min=24 / scenecut=40 / intra_refresh=0 / rc_lookahead=60 / rc=2pass / mbtree=1 / bitrate=13385 / ratetol=1.0 / qcomp=0.60 / qpmin=0 / qpmax=69 / qpstep=4 / cplxblur=20.0 / qblur=0.5 / ip_ratio=1.30 / aq=3:0.70
  25. Default                                  : Yes
  26. Forced                                   : No
  27. Statistics Tags Issue                    : no_variable_data 1970-01-01 00:00:00 / no_variable_data 2010-02-22 21:41:29
  28. FromStats_BitRate                        : 13377321
  29. FromStats_Duration                       : 01:45:04.882000000
  30. FromStats_FrameCount                     : 151166
  31. FromStats_StreamSize                     : 10542804527

  32. Audio
  33. ID                                       : 2
  34. Format                                   : DTS
  35. Format/Info                              : Digital Theater Systems
  36. Codec ID                                 : A_DTS
  37. Duration                                 : 1 h 45 min
  38. Bit rate mode                            : Constant
  39. Bit rate                                 : 1 509 kb/s
  40. Channel(s)                               : 6 channels
  41. Channel layout                           : C L R Ls Rs LFE
  42. Sampling rate                            : 48.0 kHz
  43. Frame rate                               : 93.750 FPS (512 SPF)
  44. Bit depth                                : 24 bits
  45. Compression mode                         : Lossy
  46. Stream size                              : 1.11 GiB (10%)
  47. Language                                 : English
  48. Default                                  : Yes
  49. Forced                                   : No
  50. Statistics Tags Issue                    : no_variable_data 1970-01-01 00:00:00 / no_variable_data 2010-02-22 21:41:29
  51. FromStats_BitRate                        : 1508999
  52. FromStats_Duration                       : 01:45:04.886000000
  53. FromStats_FrameCount                     : 591083
  54. FromStats_StreamSize                     : 1189258996

  55. Text #1
  56. ID                                       : 3
  57. Format                                   : UTF-8
  58. Codec ID                                 : S_TEXT/UTF8
  59. Codec ID/Info                            : UTF-8 Plain Text
  60. Language                                 : English
  61. Default                                  : No
  62. Forced                                   : No
  63. Statistics Tags Issue                    : no_variable_data 1970-01-01 00:00:00 / no_variable_data 2010-02-22 21:41:29
  64. FromStats_BitRate                        : 73
  65. FromStats_Duration                       : 01:38:21.979000000
  66. FromStats_FrameCount                     : 1328
  67. FromStats_StreamSize                     : 54441

  68. Text #2
  69. ID                                       : 4
  70. Format                                   : UTF-8
  71. Codec ID                                 : S_TEXT/UTF8
  72. Codec ID/Info                            : UTF-8 Plain Text
  73. Title                                    : SDH
  74. Language                                 : English
  75. Default                                  : No
  76. Forced                                   : No
  77. Statistics Tags Issue                    : no_variable_data 1970-01-01 00:00:00 / no_variable_data 2010-02-22 21:41:29
  78. FromStats_BitRate                        : 75
  79. FromStats_Duration                       : 01:40:09.795000000
  80. FromStats_FrameCount                     : 1408
  81. FromStats_StreamSize                     : 56642

  82. Menu
  83. 00:00:00.000                             : en:Chapter 01
  84. 00:10:58.491                             : en:Chapter 02
  85. 00:19:31.670                             : en:Chapter 03
  86. 00:36:03.578                             : en:Chapter 04
  87. 00:45:07.163                             : en:Chapter 05
  88. 00:49:28.841                             : en:Chapter 06
  89. 00:58:39.599                             : en:Chapter 07
  90. 01:13:16.100                             : en:Chapter 08
  91. 01:23:22.664                             : en:Chapter 09
  92. 01:38:28.194                             : en:Chapter 10
  93. 01:41:04.433                             : en:Chapter 11
复制代码

比佛利山超级警探/妙探出差 Beverly.Hills.Cop.1984.REMASTERED.1080p.BluRay.X264-AMIABLE 11.04GB-2.png






回复

使用道具 举报

蓝光币
746
发表于 2020-1-29 09:52:08 | 显示全部楼层
谢谢楼主无私分享。
回复 支持 反对

使用道具 举报

懒得打字嘛,点击右侧快捷回复 【右侧内容,后台自定义】
您需要登录后才可以回帖 登录 | 立即加入

本版积分规则

Archiver|小黑屋| 蓝光电影网 |网站地图

Copyright © 2021 Comsenz Inc. Powered by 蓝光电影网

蓝光电影网

本站内容由用户自主分享和转载自互联网,转载目的在于传递更多信息,并不代表本网赞同其观点和对其真实性负责。

如有侵权、违反国家法律政策行为,请联系我们,我们会第一时间及时清除和处理!

举报反馈邮箱:[email protected]

快速回复 返回顶部 返回列表