找回密码

蓝光电影网

查看: 1158|回复: 2

[剧情] 賭神 God.of.Gamblers.1989.CHINESE.1080p.BluRay.x264.DTS-MT 8.48GB

[复制链接]
蓝光币
1020
发表于 2020-1-28 23:06:20 | 显示全部楼层 |阅读模式
賭神 God.of.Gamblers.1989.CHINESE.1080p.BluRay.x264.DTS-MT 8.48GB-1.png

译  名 赌神 / God of Gamblers
片  名 賭神
年  代 1989
产  地 中国香港
类  别 剧情 / 笑剧
语  言 粤语 / 日语 / 英语
上映日期 1989-12-14(中国香港)
IMDb评分  7.3/10 from 4294 users
IMDb链接  https://www.imdb.com/title/tt0097244
豆瓣评分 8.2/10 from 133226 users
豆瓣链接 https://movie.douban.com/subject/1300883/
片  长 126 分钟
导  演 王晶 Jing Wong
编  剧 王晶 Jing Wong
主  演 周润发 Yun-Fat Chow
       刘德华 Andy Lau
       王祖贤 Joey Wong
       张敏 Sharla Cheung
       向华强 Charles Heung
       龙方 Fong Lung
       吴孟达 Man Tat Ng
       成奎安 Fui-On Shing


标  签 周润发 | 香港 | 香港电影 | 笑剧 | 刘德华 | 赌神 | 王晶 | 周星驰

简  介  

  高进(周润发 饰)前来香港与赌魔决战,怎料刚抵港,便被南哥(杨泽霖 饰)追杀,成果堕入圈套而失忆。幸得刀仔(刘德华 饰)和其女友珍(王祖贤 饰)相救,他们把高进带回家中疗养,发现高进精通赌术后,兴奋不已,想操纵他来挣大钱,却反而由于高进发挥不稳亏了钱。
  高进妻子遭其堂弟高义醉酒后污辱杀戮。高义进而联手南哥,设想谋害高进,四周网罗进的存身地址,前往追杀。流亡之时,高进翻车受伤,竟规复了记忆——可是却怎样也记不起失忆时代的工作。刀仔提醒进,高义并非好人,但进却决然蒙在鼓里,不知危难当头。

获奖情况  

  第9届香港电影金像奖(1990)
  最好男配角(提名) 周润发
  1. Video
  2. ID                                       : 1
  3. Format                                   : AVC
  4. Format/Info                              : Advanced Video Codec
  5. Format profile                           : [email protected]
  6. Format settings                          : CABAC / 5 Ref Frames
  7. Format settings, CABAC                   : Yes
  8. Format settings, Reference frames        : 5 frames
  9. Codec ID                                 : V_MPEG4/ISO/AVC
  10. Duration                                 : 2 h 6 min
  11. Bit rate                                 : 8 094 kb/s
  12. Width                                    : 1 920 pixels
  13. Height                                   : 1 080 pixels
  14. Display aspect ratio                     : 16:9
  15. Frame rate mode                          : Constant
  16. Frame rate                               : 24.000 FPS
  17. Color space                              : YUV
  18. Chroma subsampling                       : 4:2:0
  19. Bit depth                                : 8 bits
  20. Scan type                                : Progressive
  21. Bits/(Pixel*Frame)                       : 0.163
  22. Stream size                              : 7.14 GiB (84%)
  23. Writing library                          : x264 core 142 r2431+42 c69a006 tMod [[email protected]:2:0 X86_64]
  24. Encoding settings                        : cabac=1 / ref=5 / deblock=1:-3:-3 / analyse=0x3:0x113 / me=umh / subme=11 / psy=1 / fade_compensate=0.00 / psy_rd=1.05:0.10 / mixed_ref=1 / me_range=64 / chroma_me=1 / trellis=2 / 8x8dct=1 / cqm=0 / deadzone=21,11 / fast_pskip=0 / chroma_qp_offset=-2 / threads=6 / lookahead_threads=1 / sliced_threads=0 / nr=0 / decimate=1 / interlaced=0 / bluray_compat=0 / constrained_intra=0 / fgo=0 / bframes=6 / b_pyramid=2 / b_adapt=1 / b_bias=0 / direct=3 / weightb=1 / open_gop=0 / weightp=2 / keyint=250 / keyint_min=24 / scenecut=40 / intra_refresh=0 / rc_lookahead=40 / rc=crf / mbtree=0 / crf=19.5000 / qcomp=0.70 / qpmin=0:0:0 / qpmax=69:69:69 / qpstep=4 / vbv_maxrate=40000 / vbv_bufsize=30000 / crf_max=0.0 / nal_hrd=none / filler=0 / ip_ratio=1.40 / pb_ratio=1.30 / aq=3:1.00 / aq-sensitivity=10.00 / aq-factor=1.00:1.00:1.00 / aq2=0 / aq3=0
  25. Language                                 : Chinese
  26. Default                                  : Yes
  27. Forced                                   : No

  28. Audio
  29. ID                                       : 2
  30. Format                                   : DTS
  31. Format/Info                              : Digital Theater Systems
  32. Codec ID                                 : A_DTS
  33. Duration                                 : 2 h 6 min
  34. Bit rate mode                            : Constant
  35. Bit rate                                 : 1 509 kb/s
  36. Channel(s)                               : 6 channels
  37. Channel layout                           : C L R Ls Rs LFE
  38. Sampling rate                            : 48.0 kHz
  39. Frame rate                               : 93.750 FPS (512 SPF)
  40. Bit depth                                : 24 bits
  41. Compression mode                         : Lossy
  42. Stream size                              : 1.33 GiB (16%)
  43. Language                                 : Chinese
  44. Default                                  : Yes
  45. Forced                                   : No

  46. Text
  47. ID                                       : 3
  48. Format                                   : UTF-8
  49. Codec ID                                 : S_TEXT/UTF8
  50. Codec ID/Info                            : UTF-8 Plain Text
  51. Duration                                 : 2 h 4 min
  52. Bit rate                                 : 34 b/s
  53. Count of elements                        : 1649
  54. Stream size                              : 31.2 KiB (0%)
  55. Language                                 : English
  56. Default                                  : Yes
  57. Forced                                   : No
复制代码

賭神 God.of.Gamblers.1989.CHINESE.1080p.BluRay.x264.DTS-MT 8.48GB-2.png 賭神 God.of.Gamblers.1989.CHINESE.1080p.BluRay.x264.DTS-MT 8.48GB-3.png 賭神 God.of.Gamblers.1989.CHINESE.1080p.BluRay.x264.DTS-MT 8.48GB-4.png






回复

使用道具 举报

蓝光币
768
发表于 2020-1-29 09:26:38 | 显示全部楼层
谢谢楼主无私分享。
回复 支持 反对

使用道具 举报

蓝光币
115
发表于 2020-2-1 21:10:38 | 显示全部楼层

楼主,大恩不言谢了!蓝光电影网是最棒的!
回复 支持 反对

使用道具 举报

懒得打字嘛,点击右侧快捷回复 【右侧内容,后台自定义】
您需要登录后才可以回帖 登录 | 立即加入

本版积分规则

Archiver|小黑屋| 蓝光电影网 |网站地图

Copyright © 2021 Comsenz Inc. Powered by 蓝光电影网

蓝光电影网

本站内容由用户自主分享和转载自互联网,转载目的在于传递更多信息,并不代表本网赞同其观点和对其真实性负责。

如有侵权、违反国家法律政策行为,请联系我们,我们会第一时间及时清除和处理!

举报反馈邮箱:[email protected]

快速回复 返回顶部 返回列表