找回密码

蓝光电影网

查看: 493|回复: 2

[剧情] 战争未了 While.At.War.2019.SPANISH.720p.BluRay.x264.DTS-FGT 5.25GB

[复制链接]
蓝光币
1022
发表于 2020-1-28 23:11:13 | 显示全部楼层 |阅读模式
战争未了 While.At.War.2019.SPANISH.720p.BluRay.x264.DTS-FGT 5.25GB-1.png

译  名 战争未了 / While at War
片  名 Mientras dure la guerra
年  代 2019
产  地 西班牙
类  别 剧情 / 历史 / 战争
语  言 西班牙语
上映日期 2019-09-06(多伦多电影节) / 2019-09-27(西班牙)
IMDb评分  7.4/10 from 2181 users
IMDb链接  https://www.imdb.com/title/tt7818580
豆瓣评分 0/10 from 0 users
豆瓣链接 https://movie.douban.com/subject/30136692/
导  演 亚历杭德罗·阿梅纳瓦尔 Alejandro Amenábar
编  剧 亚历杭德罗·阿梅纳瓦尔 Alejandro Amenábar / 亚历杭德罗·埃尔南德斯 Alejandro Hernández
主  演 卡拉·埃莱哈尔德 Karra Elejalde
       爱德华·费尔南德斯 Eduard Fernández
       娜塔莉·波萨 Nathalie Poza
       费尔南多·巴尔维德 Fernando Valverde
       路易斯·贝尔梅霍 Luis Bermejo
       帕特里夏·洛佩斯·阿奈斯 Patricia López Arnaiz
       路易斯·扎赫拉 Luis Zahera
       路易斯·卡叶赫 Luis Callejo
       佩普·托萨 Pep Tosar
       米克尔·伊格莱西亚斯 Mikel Iglesias
       马尔滕·丹嫩贝格 Maarten Dannenberg
       卢卡·佩洛斯 Luka Peros
       Santi Prego
       Inma Cuevas
       Carlos Serrano-Clark
       Ainhoa Santamaría
       Mireia Rey
       Dafnis Balduz
       Jorge Andreu
       Alfredo Villa


标  签 西班牙 | 历史 | 战争 | 西班牙电影 | 剧情 | 西班牙语 | 电影 | 欧洲电影

简  介  

  西班牙1936年夏。著名作家米盖尔·德·乌纳穆诺决议公然支持有望清除国家紊乱大势的军事叛逆。 他马上被共和党政府解雇,不再任萨拉曼卡大黉舍长。与此同时,弗朗哥将军想法将他的军队加入叛逆阵线,并私下动手预备成为战争的总批示。面临抵触带来的血腥,同事蒙受的禁锢,乌纳穆诺起头质疑起自己最初的态度与原则。弗朗哥将总部搬到萨拉曼卡并被录用为国家元首后,乌纳穆诺前往他的住处,提出了请求.....
  上映日期(西班牙):2019年9月
  2019年圣塞巴斯蒂安电影节:官方挑选(主比赛单元)
  (by 深影字幕组)

获奖情况  

  第34届西班牙戈雅奖(2020)
  最好影片(提名)
  最好导演(提名) 亚历杭德罗·阿梅纳瓦尔
  最好男配角(提名) 卡拉·埃莱哈尔德
  最好男配角 爱德华·费尔南德斯
  最好女配角(提名) 娜塔莉·波萨
  最好新人男演员(提名) Santi Prego
  最好新人女演员(提名) 爱诺亚萨娜塔玛蕊
  最好原创剧本(提名) 亚历杭德罗·阿梅纳瓦尔 / 亚历杭德罗·埃尔南德斯
  最好摄影(提名)
  最好剪辑(提名)
  最好艺术指导
  最好建造人
  最好音效(提名)
  最好殊效(提名)
  最好打扮设想
  最好化装与发型
  最好原创音乐(提名)

  第67届圣塞巴斯蒂安国际电影节(2019)
  金贝壳奖(提名) 亚历杭德罗·阿梅纳瓦尔
  1. Video
  2. ID                                       : 1
  3. Format                                   : AVC
  4. Format/Info                              : Advanced Video Codec
  5. Format profile                           : [email protected]
  6. Format settings                          : CABAC / 4 Ref Frames
  7. Format settings, CABAC                   : Yes
  8. Format settings, Reference frames        : 4 frames
  9. Codec ID                                 : V_MPEG4/ISO/AVC
  10. Duration                                 : 1 h 47 min
  11. Bit rate                                 : 5 500 kb/s
  12. Width                                    : 1 280 pixels
  13. Height                                   : 536 pixels
  14. Display aspect ratio                     : 2.40:1
  15. Frame rate mode                          : Constant
  16. Frame rate                               : 24.000 FPS
  17. Color space                              : YUV
  18. Chroma subsampling                       : 4:2:0
  19. Bit depth                                : 8 bits
  20. Scan type                                : Progressive
  21. Bits/(Pixel*Frame)                       : 0.334
  22. Stream size                              : 4.12 GiB (78%)
  23. Title                                    : While.At.War.2019.SPANISH.720p.BluRay.x264.DTS-FGT
  24. Writing library                          : x264 core 148 r2748 97eaef2
  25. Encoding settings                        : cabac=1 / ref=4 / deblock=1:-2:-2 / analyse=0x3:0x113 / me=umh / subme=9 / psy=1 / psy_rd=1.00:0.15 / mixed_ref=1 / me_range=16 / chroma_me=1 / trellis=2 / 8x8dct=1 / cqm=0 / deadzone=21,11 / fast_pskip=1 / chroma_qp_offset=-3 / threads=72 / lookahead_threads=3 / sliced_threads=0 / nr=0 / decimate=1 / interlaced=0 / bluray_compat=0 / constrained_intra=0 / bframes=3 / b_pyramid=2 / b_adapt=1 / b_bias=0 / direct=3 / weightb=1 / open_gop=0 / weightp=2 / keyint=250 / keyint_min=25 / scenecut=40 / intra_refresh=0 / rc_lookahead=50 / rc=2pass / mbtree=1 / bitrate=5500 / ratetol=1.0 / qcomp=0.60 / qpmin=0 / qpmax=69 / qpstep=4 / cplxblur=20.0 / qblur=0.5 / vbv_maxrate=31250 / vbv_bufsize=31250 / nal_hrd=none / filler=0 / ip_ratio=1.40 / aq=1:1.00
  26. Language                                 : Spanish
  27. Default                                  : Yes
  28. Forced                                   : No

  29. Audio
  30. ID                                       : 2
  31. Format                                   : DTS
  32. Format/Info                              : Digital Theater Systems
  33. Codec ID                                 : A_DTS
  34. Duration                                 : 1 h 47 min
  35. Bit rate mode                            : Constant
  36. Bit rate                                 : 1 509 kb/s
  37. Channel(s)                               : 6 channels
  38. Channel layout                           : C L R Ls Rs LFE
  39. Sampling rate                            : 48.0 kHz
  40. Frame rate                               : 93.750 FPS (512 SPF)
  41. Bit depth                                : 16 bits
  42. Compression mode                         : Lossy
  43. Stream size                              : 1.13 GiB (22%)
  44. Title                                    : While.At.War.2019.SPANISH.720p.BluRay.x264.DTS-FGT
  45. Language                                 : Spanish
  46. Default                                  : Yes
  47. Forced                                   : No

  48. Text
  49. ID                                       : 3
  50. Format                                   : UTF-8
  51. Codec ID                                 : S_TEXT/UTF8
  52. Codec ID/Info                            : UTF-8 Plain Text
  53. Duration                                 : 1 h 40 min
  54. Bit rate                                 : 55 b/s
  55. Count of elements                        : 1264
  56. Stream size                              : 40.3 KiB (0%)
  57. Language                                 : English
  58. Default                                  : Yes
  59. Forced                                   : No

  60. Menu
  61. 00:00:00.000                             : en:Chapter 01
  62. 00:08:40.125                             : en:Chapter 02
  63. 00:17:00.500                             : en:Chapter 03
  64. 00:27:32.125                             : en:Chapter 04
  65. 00:36:36.750                             : en:Chapter 05
  66. 00:44:14.625                             : en:Chapter 06
  67. 00:54:46.375                             : en:Chapter 07
  68. 01:03:12.000                             : en:Chapter 08
  69. 01:12:23.250                             : en:Chapter 09
  70. 01:20:54.750                             : en:Chapter 10
  71. 01:30:34.000                             : en:Chapter 11
  72. 01:39:10.125                             : en:Chapter 12
  73. 01:41:11.000                             : en:Chapter 13
复制代码

战争未了 While.At.War.2019.SPANISH.720p.BluRay.x264.DTS-FGT 5.25GB-2.png 战争未了 While.At.War.2019.SPANISH.720p.BluRay.x264.DTS-FGT 5.25GB-3.png 战争未了 While.At.War.2019.SPANISH.720p.BluRay.x264.DTS-FGT 5.25GB-4.png






回复

使用道具 举报

懒得打字嘛,点击右侧快捷回复 【右侧内容,后台自定义】
您需要登录后才可以回帖 登录 | 立即加入

本版积分规则

Archiver|小黑屋| 蓝光电影网 |网站地图

Copyright © 2021 Comsenz Inc. Powered by 蓝光电影网

蓝光电影网

本站内容由用户自主分享和转载自互联网,转载目的在于传递更多信息,并不代表本网赞同其观点和对其真实性负责。

如有侵权、违反国家法律政策行为,请联系我们,我们会第一时间及时清除和处理!

举报反馈邮箱:[email protected]

快速回复 返回顶部 返回列表