找回密码

蓝光电影网

查看: 472|回复: 3

[剧情] 邦妮和克莱德:生与死 Bonnie.And.Clyde.2013.1080p.BluRay.x264.DTS-FGT 15.81GB

[复制链接]
蓝光币
1022
发表于 2020-1-28 23:14:47 | 显示全部楼层 |阅读模式
邦妮和克莱德:生与死 Bonnie.And.Clyde.2013.1080p.BluRay.x264.DTS-FGT 15.81GB-1.png

译  名 邦妮和克莱德:生与死
片  名 Bonnie and Clyde: Dead and Alive
年  代 2013
产  地 美国
类  别 剧情 / 列传 / 犯罪
语  言 英语
上映日期 2013-12-08
IMDb评分  6.5/10 from 4986 users
IMDb链接  https://www.imdb.com/title/tt2707792
豆瓣评分 6.6/10 from 308 users
豆瓣链接 https://movie.douban.com/subject/24709552/
集  数 2
片  长 120分钟
导  演 布鲁斯·贝尔斯福德 Bruce Beresford
编  剧 Joe Batteer / John Rice
主  演 埃米尔·赫斯基 Emile Hirsch
       荷丽黛·格兰杰 Holliday Grainger


标  签 犯罪 | 美剧 | 列传 | 邦尼和克莱德 | 美国 | 2013 | 剧情 | 翻拍

简  介  

  暂无相关剧情先容

获奖情况  

  第66届黄金时段艾美奖(2014)
  迷你剧/电视电影 最好迷你剧(提名)

  第16届美国打扮设想工会奖(2014)
  电视电影/迷你剧最好打扮设想(提名) 玛丽莲·万斯

  第50届美国声音结果协会奖(2014)
  电视电影/迷你剧最好音效(提名) R. Russell Smith / Shawn Murphy

  第18届金卫星奖(2014)
  电视部分 迷你剧/电视电影最好女配角(提名) 荷丽黛·格兰杰
  电视部分 最好男配角(提名) 威廉·赫特
  1. Video
  2. ID                                       : 1
  3. Format                                   : AVC
  4. Format/Info                              : Advanced Video Codec
  5. Format profile                           : [email protected]
  6. Format settings                          : CABAC / 4 Ref Frames
  7. Format settings, CABAC                   : Yes
  8. Format settings, Reference frames        : 4 frames
  9. Codec ID                                 : V_MPEG4/ISO/AVC
  10. Duration                                 : 2 h 54 min
  11. Bit rate                                 : 11.5 Mb/s
  12. Width                                    : 1 920 pixels
  13. Height                                   : 1 080 pixels
  14. Display aspect ratio                     : 16:9
  15. Frame rate mode                          : Constant
  16. Frame rate                               : 23.976 (24000/1001) FPS
  17. Color space                              : YUV
  18. Chroma subsampling                       : 4:2:0
  19. Bit depth                                : 8 bits
  20. Scan type                                : Progressive
  21. Bits/(Pixel*Frame)                       : 0.231
  22. Stream size                              : 14.0 GiB (88%)
  23. Title                                    : Bonnie.And.Clyde.2013.1080p.BluRay.x264.DTS-FGT
  24. Writing library                          : x264 core 148 r2795M aaa9aa8
  25. Encoding settings                        : cabac=1 / ref=4 / deblock=1:-2:-2 / analyse=0x3:0x113 / me=umh / subme=9 / psy=1 / psy_rd=1.00:0.15 / mixed_ref=1 / me_range=16 / chroma_me=1 / trellis=2 / 8x8dct=1 / cqm=0 / deadzone=21,11 / fast_pskip=1 / chroma_qp_offset=-3 / threads=24 / lookahead_threads=3 / sliced_threads=0 / nr=0 / decimate=1 / interlaced=0 / bluray_compat=0 / constrained_intra=0 / bframes=3 / b_pyramid=2 / b_adapt=1 / b_bias=0 / direct=3 / weightb=1 / open_gop=0 / weightp=2 / keyint=250 / keyint_min=25 / scenecut=40 / intra_refresh=0 / rc_lookahead=50 / rc=2pass / mbtree=1 / bitrate=11500 / ratetol=1.0 / qcomp=0.60 / qpmin=0 / qpmax=69 / qpstep=4 / cplxblur=20.0 / qblur=0.5 / vbv_maxrate=31250 / vbv_bufsize=31250 / nal_hrd=none / filler=0 / ip_ratio=1.40 / aq=1:1.00
  26. Language                                 : English
  27. Default                                  : Yes
  28. Forced                                   : No

  29. Audio
  30. ID                                       : 2
  31. Format                                   : DTS
  32. Format/Info                              : Digital Theater Systems
  33. Codec ID                                 : A_DTS
  34. Duration                                 : 2 h 54 min
  35. Bit rate mode                            : Constant
  36. Bit rate                                 : 1 509 kb/s
  37. Channel(s)                               : 6 channels
  38. Channel layout                           : C L R Ls Rs LFE
  39. Sampling rate                            : 48.0 kHz
  40. Frame rate                               : 93.750 FPS (512 SPF)
  41. Bit depth                                : 24 bits
  42. Compression mode                         : Lossy
  43. Stream size                              : 1.84 GiB (12%)
  44. Title                                    : Bonnie.And.Clyde.2013.1080p.BluRay.x264.DTS-FGT
  45. Language                                 : English
  46. Default                                  : Yes
  47. Forced                                   : No

  48. Text
  49. ID                                       : 3
  50. Format                                   : UTF-8
  51. Codec ID                                 : S_TEXT/UTF8
  52. Codec ID/Info                            : UTF-8 Plain Text
  53. Duration                                 : 2 h 51 min
  54. Bit rate                                 : 51 b/s
  55. Count of elements                        : 1720
  56. Stream size                              : 65.0 KiB (0%)
  57. Language                                 : English
  58. Default                                  : Yes
  59. Forced                                   : No

  60. Menu
  61. 00:00:00.000                             : en:00:00:00.000
  62. 00:07:12.057                             : en:00:07:12.057
  63. 00:12:58.736                             : en:00:12:58.736
  64. 00:18:16.429                             : en:00:18:16.429
  65. 00:24:21.543                             : en:00:24:21.543
  66. 00:29:49.788                             : en:00:29:49.788
  67. 00:33:40.894                             : en:00:33:40.894
  68. 00:37:35.211                             : en:00:37:35.211
  69. 00:39:54.350                             : en:00:39:54.350
  70. 00:44:22.577                             : en:00:44:22.577
  71. 00:49:29.216                             : en:00:49:29.216
  72. 00:54:27.931                             : en:00:54:27.931
  73. 00:59:48.210                             : en:00:59:48.210
  74. 01:05:24.295                             : en:01:05:24.295
  75. 01:12:29.887                             : en:01:12:29.887
  76. 01:18:53.145                             : en:01:18:53.145
  77. 01:23:17.618                             : en:01:23:17.618
  78. 01:31:27.691                             : en:01:31:27.691
  79. 01:35:36.981                             : en:01:35:36.981
  80. 01:44:47.531                             : en:01:44:47.531
  81. 01:52:19.858                             : en:01:52:19.858
  82. 01:59:50.350                             : en:01:59:50.350
  83. 02:05:13.005                             : en:02:05:13.005
  84. 02:12:21.225                             : en:02:12:21.225
  85. 02:16:01.695                             : en:02:16:01.695
  86. 02:23:14.503                             : en:02:23:14.503
  87. 02:26:40.000                             : en:02:26:40.000
  88. 02:32:58.378                             : en:02:32:58.378
  89. 02:37:17.678                             : en:02:37:17.678
  90. 02:39:59.632                             : en:02:39:59.632
  91. 02:45:36.009                             : en:02:45:36.009
  92. 02:52:03.271                             : en:02:52:03.271
复制代码

邦妮和克莱德:生与死 Bonnie.And.Clyde.2013.1080p.BluRay.x264.DTS-FGT 15.81GB-1.png 邦妮和克莱德:生与死 Bonnie.And.Clyde.2013.1080p.BluRay.x264.DTS-FGT 15.81GB-3.png 邦妮和克莱德:生与死 Bonnie.And.Clyde.2013.1080p.BluRay.x264.DTS-FGT 15.81GB-2.png






回复

使用道具 举报

蓝光币
757
发表于 2020-1-29 09:23:07 | 显示全部楼层
谢谢楼主无私分享。
回复 支持 反对

使用道具 举报

懒得打字嘛,点击右侧快捷回复 【右侧内容,后台自定义】
您需要登录后才可以回帖 登录 | 立即加入

本版积分规则

Archiver|小黑屋| 蓝光电影网 |网站地图

Copyright © 2021 Comsenz Inc. Powered by 蓝光电影网

蓝光电影网

本站内容由用户自主分享和转载自互联网,转载目的在于传递更多信息,并不代表本网赞同其观点和对其真实性负责。

如有侵权、违反国家法律政策行为,请联系我们,我们会第一时间及时清除和处理!

举报反馈邮箱:[email protected]

快速回复 返回顶部 返回列表