找回密码

蓝光电影网

查看: 469|回复: 1

[剧情] 船已满员 The.Boat.Is.Full.1981.GERMAN.1080p.BluRay.x264.DTS-FGT 9.42GB

[复制链接]
蓝光币
1022
发表于 2020-1-28 23:25:56 | 显示全部楼层 |阅读模式
船已满员 The.Boat.Is.Full.1981.GERMAN.1080p.BluRay.x264.DTS-FGT 9.42GB-1.png

译  名 船已满员 / The Boat Is Full
片  名 Das Boot ist voll
年  代 1981
产  地 瑞士 / 西德 / 奥天时
类  别 剧情 / 战争
语  言 德语
上映日期 1981-12-18
IMDb评分  7.1/10 from 457 users
IMDb链接  https://www.imdb.com/title/tt0082095
豆瓣评分 7.2/10 from 74 users
豆瓣链接 https://movie.douban.com/subject/1798607/
片  长 USA: 101 分钟
导  演 马库斯·伊姆霍夫 Markus Imhoof
编  剧 马库斯·伊姆霍夫 Markus Imhoof
主  演 Tina Engel
       Hans Diehl
       Martin Walz


标  签 德国 | 二战 | 瑞士 | 战争 | 德国电影 | 奥天时 | 欧洲电影 | 1981

简  介  

  二战时代,一帮来自德国的难民穿越边境进入瑞士寻觅庇护所。由于在战争时代,带着六岁以下孩子的难民家庭答应在瑞士出亡,因而一个小堆栈的老板采取了这批难民,只要他们伪装成一家人即可以躲避思疑和被遣送。这批难民中一个只会说法语的小孩,而他的“怙恃”却都说德语。当这个孩子将大师的命运把握在自己手中时,他能晓得连结沉默吗……

获奖情况  

  第54届奥斯卡金像奖(1982)
  最好外语片(提名)

  第31届柏林国际电影节(1981)
  金熊奖 最好影片(提名) 马库斯·伊姆霍夫
  银熊奖 精采成就 马库斯·伊姆霍夫
  1. Video
  2. ID                                       : 1
  3. Format                                   : AVC
  4. Format/Info                              : Advanced Video Codec
  5. Format profile                           : [email protected]
  6. Format settings                          : CABAC / 4 Ref Frames
  7. Format settings, CABAC                   : Yes
  8. Format settings, Reference frames        : 4 frames
  9. Codec ID                                 : V_MPEG4/ISO/AVC
  10. Duration                                 : 1 h 43 min
  11. Bit rate                                 : 11.5 Mb/s
  12. Width                                    : 1 796 pixels
  13. Height                                   : 1 080 pixels
  14. Display aspect ratio                     : 5:3
  15. Frame rate mode                          : Constant
  16. Frame rate                               : 23.976 (24000/1001) FPS
  17. Color space                              : YUV
  18. Chroma subsampling                       : 4:2:0
  19. Bit depth                                : 8 bits
  20. Scan type                                : Progressive
  21. Bits/(Pixel*Frame)                       : 0.247
  22. Stream size                              : 8.32 GiB (88%)
  23. Title                                    : The.Boat.Is.Full.1981.GERMAN.1080p.BluRay.x264.DTS-FGT
  24. Writing library                          : x264 core 148 r2795M aaa9aa8
  25. Encoding settings                        : cabac=1 / ref=4 / deblock=1:-2:-2 / analyse=0x3:0x113 / me=umh / subme=9 / psy=1 / psy_rd=1.00:0.15 / mixed_ref=1 / me_range=16 / chroma_me=1 / trellis=2 / 8x8dct=1 / cqm=0 / deadzone=21,11 / fast_pskip=1 / chroma_qp_offset=-3 / threads=24 / lookahead_threads=3 / sliced_threads=0 / nr=0 / decimate=1 / interlaced=0 / bluray_compat=0 / constrained_intra=0 / bframes=3 / b_pyramid=2 / b_adapt=1 / b_bias=0 / direct=3 / weightb=1 / open_gop=0 / weightp=2 / keyint=250 / keyint_min=25 / scenecut=40 / intra_refresh=0 / rc_lookahead=50 / rc=2pass / mbtree=1 / bitrate=11500 / ratetol=1.0 / qcomp=0.60 / qpmin=0 / qpmax=69 / qpstep=4 / cplxblur=20.0 / qblur=0.5 / vbv_maxrate=31250 / vbv_bufsize=31250 / nal_hrd=none / filler=0 / ip_ratio=1.40 / aq=1:1.00
  26. Language                                 : German
  27. Default                                  : Yes
  28. Forced                                   : No

  29. Audio
  30. ID                                       : 2
  31. Format                                   : DTS
  32. Format/Info                              : Digital Theater Systems
  33. Codec ID                                 : A_DTS
  34. Duration                                 : 1 h 43 min
  35. Bit rate mode                            : Constant
  36. Bit rate                                 : 1 509 kb/s
  37. Channel(s)                               : 6 channels
  38. Channel layout                           : C L R Ls Rs LFE
  39. Sampling rate                            : 48.0 kHz
  40. Frame rate                               : 93.750 FPS (512 SPF)
  41. Bit depth                                : 24 bits
  42. Compression mode                         : Lossy
  43. Stream size                              : 1.09 GiB (12%)
  44. Title                                    : The.Boat.Is.Full.1981.GERMAN.1080p.BluRay.x264.DTS-FGT
  45. Language                                 : German
  46. Default                                  : Yes
  47. Forced                                   : No

  48. Text
  49. ID                                       : 3
  50. Format                                   : UTF-8
  51. Codec ID                                 : S_TEXT/UTF8
  52. Codec ID/Info                            : UTF-8 Plain Text
  53. Duration                                 : 1 h 41 min
  54. Bit rate                                 : 34 b/s
  55. Count of elements                        : 915
  56. Stream size                              : 25.6 KiB (0%)
  57. Language                                 : English
  58. Default                                  : Yes
  59. Forced                                   : No

  60. Menu
  61. 00:00:00.000                             : en:Chapter 1
  62. 00:10:38.680                             : en:Chapter 2
  63. 00:19:57.822                             : en:Chapter 3
  64. 00:31:04.446                             : en:Chapter 4
  65. 00:42:32.300                             : en:Chapter 5
  66. 00:49:30.551                             : en:Chapter 6
  67. 00:59:25.729                             : en:Chapter 7
  68. 01:09:40.593                             : en:Chapter 8
  69. 01:20:15.728                             : en:Chapter 9
  70. 01:29:32.158                             : en:Chapter 10
复制代码

船已满员 The.Boat.Is.Full.1981.GERMAN.1080p.BluRay.x264.DTS-FGT 9.42GB-2.png 船已满员 The.Boat.Is.Full.1981.GERMAN.1080p.BluRay.x264.DTS-FGT 9.42GB-1.png 船已满员 The.Boat.Is.Full.1981.GERMAN.1080p.BluRay.x264.DTS-FGT 9.42GB-4.png






回复

使用道具 举报

懒得打字嘛,点击右侧快捷回复 【右侧内容,后台自定义】
您需要登录后才可以回帖 登录 | 立即加入

本版积分规则

Archiver|小黑屋| 蓝光电影网 |网站地图

Copyright © 2021 Comsenz Inc. Powered by 蓝光电影网

蓝光电影网

本站内容由用户自主分享和转载自互联网,转载目的在于传递更多信息,并不代表本网赞同其观点和对其真实性负责。

如有侵权、违反国家法律政策行为,请联系我们,我们会第一时间及时清除和处理!

举报反馈邮箱:[email protected]

快速回复 返回顶部 返回列表