找回密码

蓝光电影网

查看: 548|回复: 2

[剧情] 光 Radiance.2017.JAPANESE.1080p.BluRay.x264.DTS-FGT 9.22GB

[复制链接]
蓝光币
1020
发表于 2020-1-28 23:30:08 | 显示全部楼层 |阅读模式
光 Radiance.2017.JAPANESE.1080p.BluRay.x264.DTS-FGT 9.22GB-1.png

译  名 Hikari / Radiance
片  名 光
年  代 2017
产  地 日本
类  别 剧情
语  言 日语
上映日期 2017-05-23(戛纳电影节) / 2017-05-27(日本)
IMDb评分  6.4/10 from 1280 users
IMDb链接  https://www.imdb.com/title/tt6165792
豆瓣评分 6.7/10 from 1906 users
豆瓣链接 https://movie.douban.com/subject/26899030/
片  长 101分钟
导  演 河濑直美 Naomi Kawase
编  剧 河濑直美 Naomi Kawase
主  演 永濑正敏 Masatoshi Nagase
       水崎绫女 Ayame Misaki
       藤龙也 Tatsuya Fuji
       神野三铃 Misuzu Kanno
       小市慢太郎 Mantar? Koichi
       小出早织 Saori Koide
       大塚千弘 Chihiro ?tsuka
       大西信满 SHIMA OHNISHI
       堀内正美 Masami Horiuchi
       白川和子 Kazuko Shirakawa


标  签 日本 | 2017 | 文艺 | 剧情 | 戛纳电影节 | 恋爱 | 戛纳 | 温情

简  介  

  尾崎美佐子(水崎绫女 饰)处置着一份特别的职业,她的工作是将电影画面转化成笔墨写下来,再录制成音轨,为的是能让双目失明的盲人们亦能享用电影带给他们的无穷设想和兴趣。克日里,美佐子的工作遭受了瓶颈期,她所撰写的讲解始终没法获得盲人观众的认可,更有一位名叫中森雅哉(永濑正敏 饰)的摄影师,不竭的向她抛出尖锐的题目。
  现实上,中森并不是完全看不见,只是他的视力一天一天的消退着,坠入黑暗只是时候的题目。工作之余,美佐子来到中森家中造访,发现了中森隐藏至深的温温和懦弱的一面,两个一样堕入了窘境当中的人,在磨擦和碰撞当中渐渐发生了火花。

获奖情况  

  第70届戛纳电影节(2017)
  主比赛单元 金棕榈奖(提名) 河濑直美

  第47届鹿特丹国际电影节(2018)
  亚洲电影大奖(提名) 河濑直美
  1. Video
  2. ID                                       : 1
  3. Format                                   : AVC
  4. Format/Info                              : Advanced Video Codec
  5. Format profile                           : [email protected]
  6. Format settings                          : CABAC / 4 Ref Frames
  7. Format settings, CABAC                   : Yes
  8. Format settings, Reference frames        : 4 frames
  9. Codec ID                                 : V_MPEG4/ISO/AVC
  10. Duration                                 : 1 h 41 min
  11. Bit rate                                 : 11.5 Mb/s
  12. Width                                    : 1 920 pixels
  13. Height                                   : 800 pixels
  14. Display aspect ratio                     : 2.40:1
  15. Frame rate mode                          : Constant
  16. Frame rate                               : 23.976 (24000/1001) FPS
  17. Color space                              : YUV
  18. Chroma subsampling                       : 4:2:0
  19. Bit depth                                : 8 bits
  20. Scan type                                : Progressive
  21. Bits/(Pixel*Frame)                       : 0.312
  22. Stream size                              : 8.15 GiB (88%)
  23. Title                                    : Radiance.2017.JAPANESE.1080p.BluRay.x264.DTS-FGT
  24. Writing library                          : x264 core 148 r2795M aaa9aa8
  25. Encoding settings                        : cabac=1 / ref=4 / deblock=1:-2:-2 / analyse=0x3:0x113 / me=umh / subme=9 / psy=1 / psy_rd=1.00:0.15 / mixed_ref=1 / me_range=16 / chroma_me=1 / trellis=2 / 8x8dct=1 / cqm=0 / deadzone=21,11 / fast_pskip=1 / chroma_qp_offset=-3 / threads=24 / lookahead_threads=3 / sliced_threads=0 / nr=0 / decimate=1 / interlaced=0 / bluray_compat=0 / constrained_intra=0 / bframes=3 / b_pyramid=2 / b_adapt=1 / b_bias=0 / direct=3 / weightb=1 / open_gop=0 / weightp=2 / keyint=250 / keyint_min=25 / scenecut=40 / intra_refresh=0 / rc_lookahead=50 / rc=2pass / mbtree=1 / bitrate=11500 / ratetol=1.0 / qcomp=0.60 / qpmin=0 / qpmax=69 / qpstep=4 / cplxblur=20.0 / qblur=0.5 / vbv_maxrate=31250 / vbv_bufsize=31250 / nal_hrd=none / filler=0 / ip_ratio=1.40 / aq=1:1.00
  26. Language                                 : Japanese
  27. Default                                  : Yes
  28. Forced                                   : No

  29. Audio
  30. ID                                       : 2
  31. Format                                   : DTS
  32. Format/Info                              : Digital Theater Systems
  33. Codec ID                                 : A_DTS
  34. Duration                                 : 1 h 41 min
  35. Bit rate mode                            : Constant
  36. Bit rate                                 : 1 509 kb/s
  37. Channel(s)                               : 6 channels
  38. Channel layout                           : C L R Ls Rs LFE
  39. Sampling rate                            : 48.0 kHz
  40. Frame rate                               : 93.750 FPS (512 SPF)
  41. Bit depth                                : 16 bits
  42. Compression mode                         : Lossy
  43. Stream size                              : 1.07 GiB (12%)
  44. Title                                    : Radiance.2017.JAPANESE.1080p.BluRay.x264.DTS-FGT
  45. Language                                 : Japanese
  46. Default                                  : Yes
  47. Forced                                   : No

  48. Text
  49. ID                                       : 3
  50. Format                                   : UTF-8
  51. Codec ID                                 : S_TEXT/UTF8
  52. Codec ID/Info                            : UTF-8 Plain Text
  53. Duration                                 : 1 h 36 min
  54. Bit rate                                 : 28 b/s
  55. Count of elements                        : 791
  56. Stream size                              : 19.9 KiB (0%)
  57. Language                                 : English
  58. Default                                  : Yes
  59. Forced                                   : No

  60. Menu
  61. 00:00:00.000                             : en:Chapter 01
  62. 00:02:53.757                             : en:Chapter 02
  63. 00:10:41.599                             : en:Chapter 03
  64. 00:21:00.885                             : en:Chapter 04
  65. 00:29:45.993                             : en:Chapter 05
  66. 00:39:08.680                             : en:Chapter 06
  67. 00:50:33.364                             : en:Chapter 07
  68. 01:02:13.605                             : en:Chapter 08
  69. 01:12:08.866                             : en:Chapter 09
  70. 01:18:49.141                             : en:Chapter 10
  71. 01:29:04.381                             : en:Chapter 11
  72. 01:37:40.354                             : en:Chapter 12
复制代码

光 Radiance.2017.JAPANESE.1080p.BluRay.x264.DTS-FGT 9.22GB-2.png 光 Radiance.2017.JAPANESE.1080p.BluRay.x264.DTS-FGT 9.22GB-3.png 光 Radiance.2017.JAPANESE.1080p.BluRay.x264.DTS-FGT 9.22GB-4.png






回复

使用道具 举报

懒得打字嘛,点击右侧快捷回复 【右侧内容,后台自定义】
您需要登录后才可以回帖 登录 | 立即加入

本版积分规则

Archiver|小黑屋| 蓝光电影网 |网站地图

Copyright © 2021 Comsenz Inc. Powered by 蓝光电影网

蓝光电影网

本站内容由用户自主分享和转载自互联网,转载目的在于传递更多信息,并不代表本网赞同其观点和对其真实性负责。

如有侵权、违反国家法律政策行为,请联系我们,我们会第一时间及时清除和处理!

举报反馈邮箱:[email protected]

快速回复 返回顶部 返回列表