找回密码

蓝光电影网

查看: 631|回复: 3

[剧情] 爱与罪 Our.Home.2010.PORTUGUESE.1080p.BluRay.x264.DD5.1-FGT 9.27GB

[复制链接]
蓝光币
1082
发表于 2020-1-28 23:31:45 | 显示全部楼层 |阅读模式
爱与罪 Our.Home.2010.PORTUGUESE.1080p.BluRay.x264.DD5.1-FGT 9.27GB-1.png

译  名 爱与罪 / Astral City: A Spiritual Journey / Our Home: The Astral City
片  名 Nosso Lar
年  代 2010
产  地 巴西
类  别 剧情
语  言 葡萄牙语
IMDb评分  6.3/10 from 2560 users
IMDb链接  https://www.imdb.com/title/tt1467388
豆瓣评分 6.8/10 from 30 users
豆瓣链接 https://movie.douban.com/subject/3871841/
导  演 Wagner de Assis

标  签 巴西 | NossoLar | 巴西电影 | 醒觉 | 电影院 | 排队 | 拉美 | 宗教

简  介  

  物理学家安德烈·路易斯自杀后来到了一片失望之地,随后一道亮光突如其来,把他带到了圣城故里——一切和他类似人的归宿地,这里地肥水美,他结交了很多朋友,同时也遇上了自己的强敌:他曩昔的自己。他必须返回人世,证实自己灵魂的明净才能重返圣城故里。天上一日,人间十年,下凡的他能否挽回再婚的妻子和疏离的后代之间的感情呢?导演用一种马尔克斯式的叙事编制,为观众展现了生命的美好和灵魂的代价。
  1. Video
  2. ID                                       : 1
  3. Format                                   : AVC
  4. Format/Info                              : Advanced Video Codec
  5. Format profile                           : [email protected]
  6. Format settings                          : CABAC / 4 Ref Frames
  7. Format settings, CABAC                   : Yes
  8. Format settings, Reference frames        : 4 frames
  9. Codec ID                                 : V_MPEG4/ISO/AVC
  10. Duration                                 : 1 h 49 min
  11. Bit rate                                 : 11.5 Mb/s
  12. Width                                    : 1 920 pixels
  13. Height                                   : 1 080 pixels
  14. Display aspect ratio                     : 16:9
  15. Frame rate mode                          : Constant
  16. Frame rate                               : 23.976 (24000/1001) FPS
  17. Color space                              : YUV
  18. Chroma subsampling                       : 4:2:0
  19. Bit depth                                : 8 bits
  20. Scan type                                : Progressive
  21. Bits/(Pixel*Frame)                       : 0.231
  22. Stream size                              : 8.78 GiB (95%)
  23. Title                                    : Our.Home.2010.PORTUGUESE.1080p.BluRay.x264.DD5.1-FGT
  24. Writing library                          : x264 core 148 r2795M aaa9aa8
  25. Encoding settings                        : cabac=1 / ref=4 / deblock=1:-2:-2 / analyse=0x3:0x113 / me=umh / subme=9 / psy=1 / psy_rd=1.00:0.15 / mixed_ref=1 / me_range=16 / chroma_me=1 / trellis=2 / 8x8dct=1 / cqm=0 / deadzone=21,11 / fast_pskip=1 / chroma_qp_offset=-3 / threads=24 / lookahead_threads=3 / sliced_threads=0 / nr=0 / decimate=1 / interlaced=0 / bluray_compat=0 / constrained_intra=0 / bframes=3 / b_pyramid=2 / b_adapt=1 / b_bias=0 / direct=3 / weightb=1 / open_gop=0 / weightp=2 / keyint=250 / keyint_min=25 / scenecut=40 / intra_refresh=0 / rc_lookahead=50 / rc=2pass / mbtree=1 / bitrate=11500 / ratetol=1.0 / qcomp=0.60 / qpmin=0 / qpmax=69 / qpstep=4 / cplxblur=20.0 / qblur=0.5 / vbv_maxrate=31250 / vbv_bufsize=31250 / nal_hrd=none / filler=0 / ip_ratio=1.40 / aq=1:1.00
  26. Language                                 : Portuguese
  27. Default                                  : Yes
  28. Forced                                   : No

  29. Audio
  30. ID                                       : 2
  31. Format                                   : AC-3
  32. Format/Info                              : Audio Coding 3
  33. Commercial name                          : Dolby Digital
  34. Codec ID                                 : A_AC3
  35. Duration                                 : 1 h 49 min
  36. Bit rate mode                            : Constant
  37. Bit rate                                 : 640 kb/s
  38. Channel(s)                               : 6 channels
  39. Channel layout                           : L R C LFE Ls Rs
  40. Sampling rate                            : 48.0 kHz
  41. Frame rate                               : 31.250 FPS (1536 SPF)
  42. Bit depth                                : 16 bits
  43. Compression mode                         : Lossy
  44. Stream size                              : 501 MiB (5%)
  45. Title                                    : Our.Home.2010.PORTUGUESE.1080p.BluRay.x264.DD5.1-FGT
  46. Language                                 : Portuguese
  47. Service kind                             : Complete Main
  48. Default                                  : Yes
  49. Forced                                   : No

  50. Text
  51. ID                                       : 3
  52. Format                                   : UTF-8
  53. Codec ID                                 : S_TEXT/UTF8
  54. Codec ID/Info                            : UTF-8 Plain Text
  55. Duration                                 : 1 h 47 min
  56. Bit rate                                 : 39 b/s
  57. Count of elements                        : 1021
  58. Stream size                              : 30.6 KiB (0%)
  59. Language                                 : English
  60. Default                                  : Yes
  61. Forced                                   : No

  62. Menu
  63. 00:00:00.000                             : :Chapter 01
  64. 00:09:18.850                             : :Chapter 02
  65. 00:17:41.519                             : :Chapter 03
  66. 00:31:20.754                             : :Chapter 04
  67. 00:39:03.758                             : :Chapter 05
  68. 00:49:25.504                             : :Chapter 06
  69. 01:00:06.186                             : :Chapter 07
  70. 01:09:42.762                             : :Chapter 08
  71. 01:21:10.616                             : :Chapter 09
  72. 01:30:32.844                             : :Chapter 10
  73. 01:39:03.604                             : :Chapter 11
  74. 01:43:09.642                             : :Chapter 12
复制代码

爱与罪 Our.Home.2010.PORTUGUESE.1080p.BluRay.x264.DD5.1-FGT 9.27GB-2.png 爱与罪 Our.Home.2010.PORTUGUESE.1080p.BluRay.x264.DD5.1-FGT 9.27GB-3.png 爱与罪 Our.Home.2010.PORTUGUESE.1080p.BluRay.x264.DD5.1-FGT 9.27GB-4.png






回复

使用道具 举报

懒得打字嘛,点击右侧快捷回复 【右侧内容,后台自定义】
您需要登录后才可以回帖 登录 | 立即加入

本版积分规则

Archiver|小黑屋| 蓝光电影网 |网站地图

Copyright © 2021 Comsenz Inc. Powered by 蓝光电影网

蓝光电影网

本站内容由用户自主分享和转载自互联网,转载目的在于传递更多信息,并不代表本网赞同其观点和对其真实性负责。

如有侵权、违反国家法律政策行为,请联系我们,我们会第一时间及时清除和处理!

举报反馈邮箱:[email protected]

快速回复 返回顶部 返回列表