找回密码

蓝光电影网

查看: 403|回复: 2

[剧情] 这不是弥赛亚/不是救世主:他是一个非常顽皮的孩子 Not.The.Messiah.Hes.A.Very.Naughty.Boy.2010.1080p.BluRay.x264.DTS-FGT 8.31GB

[复制链接]
蓝光币
1020
发表于 2020-1-28 23:33:25 | 显示全部楼层 |阅读模式
这不是弥赛亚/不是救世主:他是一个很是顽皮的孩子 Not.The.Messiah.Hes.A.Very.Naughty.Boy.2010.1080p.BluRay.x264.DTS-FGT 8.31GB-1.png

译  名 这不是弥赛亚 / 不是救世主:他是一个很是顽皮的孩子
片  名 Not the Messiah (He's a Very Naughty Boy)
年  代 2010
产  地 英国
类  别 剧情 / 笑剧 / 音乐
语  言 英语
上映日期 2010-03-25
IMDb评分  7.1/10 from 1132 users
IMDb链接  https://www.imdb.com/title/tt1616543
豆瓣评分 8.7/10 from 411 users
豆瓣链接 https://movie.douban.com/subject/4876176/
片  长 92 分钟
导  演 Aubrey Powell
编  剧 Eric Idle / John Du Prez
主  演 艾瑞克·爱都 Eric Idle
       麦克·帕林 Michael Palin
       特瑞·琼斯 Terry Jones
       特瑞·吉列姆 Terry Gilliam
       Shannon Mercer


标  签 英国 | 笑剧 | 音乐 | MontyPython | 2010 | 英国电影 | 音乐剧 | Monty_Python

简  介  

  Monty Python是英国六人笑剧团体,成员为以下六位:John Cleese、Michael Palin、Terry Gilliam、Eric Idle、Graham Chapman和Terry Jones,在四十年的时候里,计有四十五集电视节目,五部剧情长片,以及出书了好几本书、好几张唱片,「Monty Python」说唱剧团已在全天下建立起可供跪拜的名声。其中团员之一艾瑞克·艾朵与音乐创作人约翰·杜·普瑞兹(John Du Prez)携手合作,将加拿大艺术节首演剧目(改编自 “Monty Python’s the life of Brian” 的清唱剧) “这不是弥赛亚” 连系交响乐团 , 长达60分种说学逗唱与古典文雅交响乐融合的精采实况表演。
  1. Video
  2. ID                                       : 1
  3. Format                                   : AVC
  4. Format/Info                              : Advanced Video Codec
  5. Format profile                           : [email protected]
  6. Format settings                          : CABAC / 4 Ref Frames
  7. Format settings, CABAC                   : Yes
  8. Format settings, Reference frames        : 4 frames
  9. Codec ID                                 : V_MPEG4/ISO/AVC
  10. Duration                                 : 1 h 31 min
  11. Bit rate                                 : 11.5 Mb/s
  12. Width                                    : 1 920 pixels
  13. Height                                   : 1 080 pixels
  14. Display aspect ratio                     : 16:9
  15. Frame rate mode                          : Constant
  16. Frame rate                               : 23.976 (24000/1001) FPS
  17. Color space                              : YUV
  18. Chroma subsampling                       : 4:2:0
  19. Bit depth                                : 8 bits
  20. Scan type                                : Progressive
  21. Bits/(Pixel*Frame)                       : 0.231
  22. Stream size                              : 7.34 GiB (88%)
  23. Title                                    : Not.The.Messiah.Hes.A.Very.Naughty.Boy.2010.1080p.BluRay.x264.DTS-FGT
  24. Writing library                          : x264 core 148 r2748 97eaef2
  25. Encoding settings                        : cabac=1 / ref=4 / deblock=1:-2:-2 / analyse=0x3:0x113 / me=umh / subme=9 / psy=1 / psy_rd=1.00:0.15 / mixed_ref=1 / me_range=16 / chroma_me=1 / trellis=2 / 8x8dct=1 / cqm=0 / deadzone=21,11 / fast_pskip=1 / chroma_qp_offset=-3 / threads=72 / lookahead_threads=3 / sliced_threads=0 / nr=0 / decimate=1 / interlaced=0 / bluray_compat=0 / constrained_intra=0 / bframes=3 / b_pyramid=2 / b_adapt=1 / b_bias=0 / direct=3 / weightb=1 / open_gop=0 / weightp=2 / keyint=250 / keyint_min=25 / scenecut=40 / intra_refresh=0 / rc_lookahead=50 / rc=2pass / mbtree=1 / bitrate=11500 / ratetol=1.0 / qcomp=0.60 / qpmin=0 / qpmax=69 / qpstep=4 / cplxblur=20.0 / qblur=0.5 / vbv_maxrate=31250 / vbv_bufsize=31250 / nal_hrd=none / filler=0 / ip_ratio=1.40 / aq=1:1.00
  26. Language                                 : English
  27. Default                                  : Yes
  28. Forced                                   : No

  29. Audio
  30. ID                                       : 2
  31. Format                                   : DTS
  32. Format/Info                              : Digital Theater Systems
  33. Codec ID                                 : A_DTS
  34. Duration                                 : 1 h 31 min
  35. Bit rate mode                            : Constant
  36. Bit rate                                 : 1 509 kb/s
  37. Channel(s)                               : 6 channels
  38. Channel layout                           : C L R Ls Rs LFE
  39. Sampling rate                            : 48.0 kHz
  40. Frame rate                               : 93.750 FPS (512 SPF)
  41. Bit depth                                : 24 bits
  42. Compression mode                         : Lossy
  43. Stream size                              : 987 MiB (12%)
  44. Title                                    : Not.The.Messiah.Hes.A.Very.Naughty.Boy.2010.1080p.BluRay.x264.DTS-FGT
  45. Language                                 : English
  46. Default                                  : Yes
  47. Forced                                   : No

  48. Text
  49. ID                                       : 3
  50. Format                                   : UTF-8
  51. Codec ID                                 : S_TEXT/UTF8
  52. Codec ID/Info                            : UTF-8 Plain Text
  53. Duration                                 : 1 h 25 min
  54. Bit rate                                 : 49 b/s
  55. Count of elements                        : 1115
  56. Stream size                              : 31.4 KiB (0%)
  57. Language                                 : English
  58. Default                                  : Yes
  59. Forced                                   : No

  60. Menu
  61. 00:00:00.000                             : en:Kapitel 01
  62. 00:07:07.552                             : en:Kapitel 02
  63. 00:14:49.138                             : en:Kapitel 03
  64. 00:18:28.857                             : en:Kapitel 04
  65. 00:22:49.159                             : en:Kapitel 05
  66. 00:30:12.727                             : en:Kapitel 06
  67. 00:36:05.913                             : en:Kapitel 07
  68. 00:40:53.576                             : en:Kapitel 08
  69. 00:46:00.591                             : en:Kapitel 09
  70. 00:49:49.152                             : en:Kapitel 10
  71. 00:57:21.771                             : en:Kapitel 11
  72. 01:00:23.244                             : en:Kapitel 12
  73. 01:08:38.072                             : en:Kapitel 13
  74. 01:13:34.451                             : en:Kapitel 14
  75. 01:19:41.318                             : en:Kapitel 15
  76. 01:25:20.448                             : en:Kapitel 16
复制代码

这不是弥赛亚/不是救世主:他是一个很是顽皮的孩子 Not.The.Messiah.Hes.A.Very.Naughty.Boy.2010.1080p.BluRay.x264.DTS-FGT 8.31GB-2.png 这不是弥赛亚/不是救世主:他是一个很是顽皮的孩子 Not.The.Messiah.Hes.A.Very.Naughty.Boy.2010.1080p.BluRay.x264.DTS-FGT 8.31GB-3.png 这不是弥赛亚/不是救世主:他是一个很是顽皮的孩子 Not.The.Messiah.Hes.A.Very.Naughty.Boy.2010.1080p.BluRay.x264.DTS-FGT 8.31GB-1.png






回复

使用道具 举报

蓝光币
861
发表于 2020-1-29 15:21:46 | 显示全部楼层
谢谢楼主分享
回复 支持 反对

使用道具 举报

蓝光币
1644
发表于 2020-1-29 15:57:43 | 显示全部楼层

楼主太厉害了!楼主,电影应该很好看我觉得蓝光电影网真是个好地方!
回复 支持 反对

使用道具 举报

懒得打字嘛,点击右侧快捷回复 【右侧内容,后台自定义】
您需要登录后才可以回帖 登录 | 立即加入

本版积分规则

Archiver|小黑屋| 蓝光电影网 |网站地图

Copyright © 2021 Comsenz Inc. Powered by 蓝光电影网

蓝光电影网

本站内容由用户自主分享和转载自互联网,转载目的在于传递更多信息,并不代表本网赞同其观点和对其真实性负责。

如有侵权、违反国家法律政策行为,请联系我们,我们会第一时间及时清除和处理!

举报反馈邮箱:[email protected]

快速回复 返回顶部 返回列表