找回密码

蓝光电影网

查看: 1170|回复: 3

[惊悚] 终极至死 Greatful.Dead.2013.JAPANESE.1080p.BluRay.x264.DTS-FGT 8.90GB

[复制链接]
蓝光币
1020
发表于 2020-1-28 23:37:38 | 显示全部楼层 |阅读模式
终极至死 Greatful.Dead.2013.JAPANESE.1080p.BluRay.x264.DTS-FGT 8.90GB-1.png

译  名 终极至死 / Greatful Dead / 终极性爱死(港)
片  名 グレイトフルデッド
年  代 2013
产  地 日本
类  别 惊悚
语  言 日语
上映日期 2014-11-01(日本)
IMDb评分  6.3/10 from 567 users
IMDb链接  https://www.imdb.com/title/tt3181588
豆瓣评分 6.3/10 from 77 users
豆瓣链接 https://movie.douban.com/subject/21267625/
片  长 97分钟
导  演 内田英治 Eiji Uchida
编  剧 内田英治 Eiji Uchida / 平谷悦郎
主  演 瀧内公美
       笹野高史 Takashi Sasano


标  签 日本 | 日本电影 | 内田英治 | 惊悚 | 日本Cult | 悬疑 | 扔B | Cult

简  介  

  窃看,是很多日本电影的主题。不外今次窃看者绝非痴汉,少女也不再是受害者。相反,片中的少女配角,嚐好就是窃看,而且工具必定是老而弥坚的阿伯。坐拥大量遗产的少女,对孤单的追求已经到达迷恋的境界。一次,她找到一位等死的阿伯,阿伯在家中煲「鼓油碟」,惹来少女留意,渐渐地,窃看已 经不可以满足她,她要绑架阿伯,满足自己的特别辟好。导演以一个意想不到的黑色故事,把日本生齿老化及宗教狂热的元素共冶一炉,桥段意想不到,大胆而过瘾。
  1. Video
  2. ID                                       : 1
  3. Format                                   : AVC
  4. Format/Info                              : Advanced Video Codec
  5. Format profile                           : [email protected]
  6. Format settings                          : CABAC / 4 Ref Frames
  7. Format settings, CABAC                   : Yes
  8. Format settings, Reference frames        : 4 frames
  9. Codec ID                                 : V_MPEG4/ISO/AVC
  10. Duration                                 : 1 h 38 min
  11. Bit rate                                 : 11.5 Mb/s
  12. Width                                    : 1 920 pixels
  13. Height                                   : 1 036 pixels
  14. Display aspect ratio                     : 1.85:1
  15. Frame rate mode                          : Constant
  16. Frame rate                               : 23.976 (24000/1001) FPS
  17. Color space                              : YUV
  18. Chroma subsampling                       : 4:2:0
  19. Bit depth                                : 8 bits
  20. Scan type                                : Progressive
  21. Bits/(Pixel*Frame)                       : 0.241
  22. Stream size                              : 7.87 GiB (88%)
  23. Title                                    : Greatful.Dead.2013.JAPANESE.1080p.BluRay.x264.DTS-FGT
  24. Writing library                          : x264 core 148 r2795M aaa9aa8
  25. Encoding settings                        : cabac=1 / ref=4 / deblock=1:-2:-2 / analyse=0x3:0x113 / me=umh / subme=9 / psy=1 / psy_rd=1.00:0.15 / mixed_ref=1 / me_range=16 / chroma_me=1 / trellis=2 / 8x8dct=1 / cqm=0 / deadzone=21,11 / fast_pskip=1 / chroma_qp_offset=-3 / threads=24 / lookahead_threads=3 / sliced_threads=0 / nr=0 / decimate=1 / interlaced=0 / bluray_compat=0 / constrained_intra=0 / bframes=3 / b_pyramid=2 / b_adapt=1 / b_bias=0 / direct=3 / weightb=1 / open_gop=0 / weightp=2 / keyint=250 / keyint_min=25 / scenecut=40 / intra_refresh=0 / rc_lookahead=50 / rc=2pass / mbtree=1 / bitrate=11500 / ratetol=1.0 / qcomp=0.60 / qpmin=0 / qpmax=69 / qpstep=4 / cplxblur=20.0 / qblur=0.5 / vbv_maxrate=31250 / vbv_bufsize=31250 / nal_hrd=none / filler=0 / ip_ratio=1.40 / aq=1:1.00
  26. Language                                 : Japanese
  27. Default                                  : Yes
  28. Forced                                   : No

  29. Audio
  30. ID                                       : 2
  31. Format                                   : DTS
  32. Format/Info                              : Digital Theater Systems
  33. Codec ID                                 : A_DTS
  34. Duration                                 : 1 h 38 min
  35. Bit rate mode                            : Constant
  36. Bit rate                                 : 1 509 kb/s
  37. Channel(s)                               : 2 channels
  38. Channel layout                           : L R
  39. Sampling rate                            : 48.0 kHz
  40. Frame rate                               : 93.750 FPS (512 SPF)
  41. Bit depth                                : 16 bits
  42. Compression mode                         : Lossy
  43. Stream size                              : 1.03 GiB (12%)
  44. Title                                    : Greatful.Dead.2013.JAPANESE.1080p.BluRay.x264.DTS-FGT
  45. Language                                 : Japanese
  46. Default                                  : Yes
  47. Forced                                   : No

  48. Text
  49. ID                                       : 3
  50. Format                                   : UTF-8
  51. Codec ID                                 : S_TEXT/UTF8
  52. Codec ID/Info                            : UTF-8 Plain Text
  53. Duration                                 : 1 h 33 min
  54. Bit rate                                 : 21 b/s
  55. Count of elements                        : 573
  56. Stream size                              : 14.9 KiB (0%)
  57. Language                                 : English
  58. Default                                  : Yes
  59. Forced                                   : No

  60. Menu
  61. 00:00:00.000                             : en:Chapter 01
  62. 00:05:09.267                             : en:Chapter 02
  63. 00:10:45.979                             : en:Chapter 03
  64. 00:18:12.466                             : en:Chapter 04
  65. 00:24:41.021                             : en:Chapter 05
  66. 00:27:33.527                             : en:Chapter 06
  67. 00:35:19.451                             : en:Chapter 07
  68. 00:40:32.597                             : en:Chapter 08
  69. 00:44:39.427                             : en:Chapter 09
  70. 00:48:02.630                             : en:Chapter 10
  71. 00:51:31.797                             : en:Chapter 11
  72. 00:56:41.106                             : en:Chapter 12
  73. 01:09:54.273                             : en:Chapter 13
  74. 01:19:04.156                             : en:Chapter 14
  75. 01:24:16.802                             : en:Chapter 15
  76. 01:34:48.766                             : en:Chapter 16
复制代码

终极至死 Greatful.Dead.2013.JAPANESE.1080p.BluRay.x264.DTS-FGT 8.90GB-2.png 终极至死 Greatful.Dead.2013.JAPANESE.1080p.BluRay.x264.DTS-FGT 8.90GB-2.png 终极至死 Greatful.Dead.2013.JAPANESE.1080p.BluRay.x264.DTS-FGT 8.90GB-4.png






回复

使用道具 举报

蓝光币
775
发表于 2020-1-29 09:18:51 | 显示全部楼层
谢谢楼主无私分享。
回复 支持 反对

使用道具 举报

蓝光币
885
发表于 2020-2-7 19:10:06 | 显示全部楼层
楼主发贴辛苦了,谢谢楼主分享!我觉得蓝光电影网是注册对了!
回复 支持 反对

使用道具 举报

蓝光币
264
发表于 2020-2-17 13:48:51 | 显示全部楼层
谢谢楼主精彩分享!
回复 支持 反对

使用道具 举报

懒得打字嘛,点击右侧快捷回复 【右侧内容,后台自定义】
您需要登录后才可以回帖 登录 | 立即加入

本版积分规则

Archiver|小黑屋| 蓝光电影网 |网站地图

Copyright © 2021 Comsenz Inc. Powered by 蓝光电影网

蓝光电影网

本站内容由用户自主分享和转载自互联网,转载目的在于传递更多信息,并不代表本网赞同其观点和对其真实性负责。

如有侵权、违反国家法律政策行为,请联系我们,我们会第一时间及时清除和处理!

举报反馈邮箱:[email protected]

快速回复 返回顶部 返回列表