找回密码

蓝光电影网

查看: 816|回复: 6

[动画] 五星物语 Five.Star.Stories.1989.JAPANESE.1080p.BluRay.x264.DTS-FGT 5.99GB

[复制链接]
蓝光币
1022
发表于 2020-1-28 23:38:31 | 显示全部楼层 |阅读模式
五星物语 Five.Star.Stories.1989.JAPANESE.1080p.BluRay.x264.DTS-FGT 5.99GB-1.png

译  名 五星物语 / The Five Star Stories
片  名 ファイブスター物語
年  代 1989
产  地 日本
类  别 行动 / 恋爱 / 科幻 / 动画 / 奇异
语  言 日语
上映日期 1989-03-11(日本)
IMDb评分  6.2/10 from 255 users
IMDb链接  https://www.imdb.com/title/tt0159443
豆瓣评分 8.3/10 from 2804 users
豆瓣链接 https://movie.douban.com/subject/1308872/
片  长 66分钟
导  演 山崎和男 Kazuo Yamazaki
编  剧 远藤明范
主  演 堀川亮 Ry? Horikawa
       川村万梨阿 Maria Kawamura
       田中秀幸 Hideyuki Tanaka
       若本规夫 Norio Wakamoto
       永井一郎 Ichir? Nagai
       井上和彦 Kazuhiko Inoue
       佐久间玲 Rei Sakuma
       中田和宏 Kazuhiro Nakata
       鹰森淑乃 Yoshino Takamori
       速水奖 Sh? Hayami
       广濑正志 Masashi Hirose
       鹈饲留美子 Rumiko Ukai
       横尾麻里 Yokoo Mari
       田原阿尔诺 Aruno Tahara
       中尾隆圣 Ry?sei Nakao
       二又一成 Issei Futamata
       岛香裕 Yu Shimaka
       山寺宏一 K?ichi Yamadera
       西村朋纮 Tomohiro Nishimura
       菅原正志 Masashi Sugawara
       茶风林 Chaf?rin
       梁田清之 Kiyoyuki Yanada
       中西妙子 Taeko Nakanishi


标  签 动画 | 五星物语 | 日本 | 日本动画 | 科幻 | 戏院版 | OVA | 动漫

简  介  

  星历2988,巴兰谢公(田中秀幸 配音)成功研制出新型Fatima(具有女性表面的机械人)拉克西丝(川村万梨阿 配音)和克罗索(佐久間レイ 配音),他召开盛大华贵的公布会,连传奇整备士雷帝欧斯·苏普(堀川亮 配音)也应邀加入。但在公布会起头前,克罗索在拉克西丝的帮助下逃窜,引发一阵紊乱。终极寇拉斯三世(井上和彦 配音)救下克罗索,尔后者也将寇拉斯认定为自己的仆人。虽则如此,邪恶贪心的尤巴至公(永井一郎 配音)不愿蒙受如此挫败,他时辰诡计将克罗索和拉克西丝纳为自己的私人物品。一场关乎贪心和愿望的争取……
  本片按照日本漫画家永野护的同名原作改编。
  1. Video
  2. ID                                       : 1
  3. Format                                   : AVC
  4. Format/Info                              : Advanced Video Codec
  5. Format profile                           : [email protected]
  6. Format settings                          : CABAC / 4 Ref Frames
  7. Format settings, CABAC                   : Yes
  8. Format settings, Reference frames        : 4 frames
  9. Codec ID                                 : V_MPEG4/ISO/AVC
  10. Duration                                 : 1 h 5 min
  11. Bit rate                                 : 11.5 Mb/s
  12. Width                                    : 1 868 pixels
  13. Height                                   : 1 080 pixels
  14. Display aspect ratio                     : 1.730
  15. Frame rate mode                          : Constant
  16. Frame rate                               : 23.976 (24000/1001) FPS
  17. Color space                              : YUV
  18. Chroma subsampling                       : 4:2:0
  19. Bit depth                                : 8 bits
  20. Scan type                                : Progressive
  21. Bits/(Pixel*Frame)                       : 0.238
  22. Stream size                              : 5.29 GiB (88%)
  23. Title                                    : Five.Star.Stories.1989.JAPANESE.1080p.BluRay.x264.DTS-FGT
  24. Writing library                          : x264 core 148 r2795M aaa9aa8
  25. Encoding settings                        : cabac=1 / ref=4 / deblock=1:1:1 / analyse=0x3:0x113 / me=umh / subme=8 / psy=1 / psy_rd=0.50:0.00 / mixed_ref=1 / me_range=32 / chroma_me=1 / trellis=2 / 8x8dct=1 / cqm=0 / deadzone=21,11 / fast_pskip=1 / chroma_qp_offset=-2 / threads=34 / lookahead_threads=3 / sliced_threads=0 / nr=0 / decimate=1 / interlaced=0 / bluray_compat=0 / constrained_intra=0 / bframes=3 / b_pyramid=2 / b_adapt=1 / b_bias=0 / direct=3 / weightb=1 / open_gop=0 / weightp=2 / keyint=240 / keyint_min=24 / scenecut=40 / intra_refresh=0 / rc_lookahead=50 / rc=2pass / mbtree=1 / bitrate=11500 / ratetol=1.0 / qcomp=0.60 / qpmin=0 / qpmax=69 / qpstep=4 / cplxblur=20.0 / qblur=0.5 / vbv_maxrate=31250 / vbv_bufsize=31250 / nal_hrd=none / filler=0 / ip_ratio=1.40 / aq=3:0.60
  26. Language                                 : Japanese
  27. Default                                  : Yes
  28. Forced                                   : No

  29. Audio
  30. ID                                       : 2
  31. Format                                   : DTS
  32. Format/Info                              : Digital Theater Systems
  33. Codec ID                                 : A_DTS
  34. Duration                                 : 1 h 5 min
  35. Bit rate mode                            : Constant
  36. Bit rate                                 : 1 509 kb/s
  37. Channel(s)                               : 2 channels
  38. Channel layout                           : L R
  39. Sampling rate                            : 48.0 kHz
  40. Frame rate                               : 93.750 FPS (512 SPF)
  41. Bit depth                                : 16 bits
  42. Compression mode                         : Lossy
  43. Stream size                              : 712 MiB (12%)
  44. Title                                    : Five.Star.Stories.1989.JAPANESE.1080p.BluRay.x264.DTS-FGT
  45. Language                                 : Japanese
  46. Default                                  : Yes
  47. Forced                                   : No

  48. Text
  49. ID                                       : 3
  50. Format                                   : UTF-8
  51. Codec ID                                 : S_TEXT/UTF8
  52. Codec ID/Info                            : UTF-8 Plain Text
  53. Duration                                 : 1 h 5 min
  54. Bit rate                                 : 37 b/s
  55. Count of elements                        : 665
  56. Stream size                              : 18.2 KiB (0%)
  57. Language                                 : English
  58. Default                                  : Yes
  59. Forced                                   : No

  60. Menu
  61. 00:00:00.000                             : en:Chapter 01
  62. 00:02:49.002                             : en:Chapter 02
  63. 00:06:24.509                             : en:Chapter 03
  64. 00:11:11.004                             : en:Chapter 04
  65. 00:18:54.425                             : en:Chapter 05
  66. 00:21:59.068                             : en:Chapter 06
  67. 00:34:28.942                             : en:Chapter 07
  68. 00:41:12.762                             : en:Chapter 08
  69. 00:48:23.859                             : en:Chapter 09
  70. 00:54:30.934                             : en:Chapter 10
  71. 00:59:24.060                             : en:Chapter 11
  72. 01:03:26.636                             : en:Chapter 12
复制代码

五星物语 Five.Star.Stories.1989.JAPANESE.1080p.BluRay.x264.DTS-FGT 5.99GB-2.png 五星物语 Five.Star.Stories.1989.JAPANESE.1080p.BluRay.x264.DTS-FGT 5.99GB-3.png 五星物语 Five.Star.Stories.1989.JAPANESE.1080p.BluRay.x264.DTS-FGT 5.99GB-4.png






回复

使用道具 举报

懒得打字嘛,点击右侧快捷回复 【右侧内容,后台自定义】
您需要登录后才可以回帖 登录 | 立即加入

本版积分规则

Archiver|小黑屋| 蓝光电影网 |网站地图

Copyright © 2021 Comsenz Inc. Powered by 蓝光电影网

蓝光电影网

本站内容由用户自主分享和转载自互联网,转载目的在于传递更多信息,并不代表本网赞同其观点和对其真实性负责。

如有侵权、违反国家法律政策行为,请联系我们,我们会第一时间及时清除和处理!

举报反馈邮箱:[email protected]

快速回复 返回顶部 返回列表