找回密码

蓝光电影网

查看: 2985|回复: 4

[动画] 白蛇:缘起 White.Snake.2019.CHINESE.1080p.BluRay.x264.DTS-CHD 8.54GB

[复制链接]
蓝光币
1022
发表于 2020-1-28 23:46:43 | 显示全部楼层 |阅读模式
白蛇:缘起 White.Snake.2019.CHINESE.1080p.BluRay.x264.DTS-CHD 8.54GB-1.png

译  名 White Snake
片  名 白蛇:缘起
年  代 2019
产  地 中国大陆 / 美国
类  别 恋爱 / 动画 / 奇异
语  言 汉语普通话
上映日期 2019-01-11(中国大陆)
IMDb评分  7.1/10 from 816 users
IMDb链接  https://www.imdb.com/title/tt9288776
豆瓣评分 7.9/10 from 465766 users
豆瓣链接 https://movie.douban.com/subject/30331149/
片  长 99分钟
导  演 黄家康 Jiakang Huang / 赵霁 Ji Zhao
编  剧 大毛 Damao
主  演 张喆 Zhe Zhang
       杨天翔 Tianxiang Yang
       唐小喜 Xiaoxi Tang
       刘薇 Wei Liu
       张遥函 Yaohan Zhang
       郑小璞 Xiaopu Zheng
       张博恒 Boheng Zhang
       张赫 He Zhang
       马程 Cheng Ma
       程寅 Yin Cheng
       陈霖生 Linsheng Chen
       惠龙 Long Hui
       林强 Qiang Lin
       章斌  Bin Zhang


标  签 动画 | 恋爱 | 唯美 | 中国 | 古装 | 神话 | 奇异 | 中国大陆

简  介  

  阴暗洞中,白蛇(张喆 配音)苦苦修炼却不得其法,小青见此情形,将发髻上的碧玉簪子取下,令白蛇攥在手中。那一刻,五百年前的记忆瞬间苏醒。五百年前,晚唐君主昏聩庸碌,把握魔法的国师只手遮天,号令全国百姓捕蛇修法。为了拯救族群,白蛇冒险谋杀,成果却遭受挫败,还落空了记忆。当她再度醒来,发现自己被一个专门捕蛇的村子所救下,而阿谁怯懦却善良的青年许宣(杨天翔 配音)则吸引了白蛇的留意。与此同时,国师派出爪牙四周追随白蛇的着落,而蛇族更误解白蛇潜逃人类,持续不断派出杀手。
  五百年后的一段姻缘,早在这浊世之间便已缔结……

获奖情况  

  第29届安锡国际动画节(2019)
  长篇动画单元 长片水晶奖(提名) 黄家康 / 赵霁

  第32届中国电影金鸡奖(2019)
  最好美术片(提名)

  第67届美国音效剪辑协会奖(2020)
  金卷轴奖 最好动画片音效剪辑(提名)

  第6届豆瓣电影年度榜单(2019)
  评分最高的华语电影(提名)
  评分最高的动画片(提名)
  1. Video
  2. ID                                       : 1
  3. Format                                   : AVC
  4. Format/Info                              : Advanced Video Codec
  5. Format profile                           : [email protected]
  6. Format settings                          : CABAC / 4 Ref Frames
  7. Format settings, CABAC                   : Yes
  8. Format settings, Reference frames        : 4 frames
  9. Codec ID                                 : V_MPEG4/ISO/AVC
  10. Duration                                 : 1 h 39 min
  11. Bit rate                                 : 10.8 Mb/s
  12. Width                                    : 1 920 pixels
  13. Height                                   : 804 pixels
  14. Display aspect ratio                     : 2.40:1
  15. Frame rate mode                          : Constant
  16. Frame rate                               : 24.000 FPS
  17. Color space                              : YUV
  18. Chroma subsampling                       : 4:2:0
  19. Bit depth                                : 8 bits
  20. Scan type                                : Progressive
  21. Bits/(Pixel*Frame)                       : 0.292
  22. Stream size                              : 7.49 GiB (88%)
  23. Writing library                          : x264 core 157 r2867+150 7e91e0e t_mod_Custom_2 [[email protected] X86_64]
  24. Encoding settings                        : cabac=1 / ref=4 / deblock=1:-3:-3 / analyse=0x3:0x133 / me=umh / subme=11 / psy=1 / fade_compensate=0.00 / psy_rd=0.90:0.10 / mixed_ref=1 / me_range=64 / chroma_me=1 / trellis=2 / 8x8dct=1 / cqm=0 / deadzone=21,11 / fast_pskip=0 / chroma_qp_offset=-4 / threads=25 / lookahead_threads=4 / sliced_threads=0 / nr=0 / decimate=1 / interlaced=0 / bluray_compat=0 / constrained_intra=0 / fgo=0 / bframes=8 / b_pyramid=2 / b_adapt=2 / b_bias=0 / direct=3 / weightb=1 / open_gop=0 / weightp=2 / keyint=250 / keyint_min=24 / scenecut=40 / intra_refresh=0 / rc_lookahead=60 / rc=crf / mbtree=0 / crf=17.0000 / qcomp=0.70 / qpmin=0:0:0 / qpmax=69:69:69 / qpstep=4 / vbv_maxrate=35000 / vbv_bufsize=35000 / crf_max=0.0 / nal_hrd=none / filler=0 / ip_ratio=1.40 / pb_ratio=1.30 / aq=3:1.00 / aq-sensitivity=10.00 / aq-factor=1.00:1.00:1.00 / aq2=0 / aq3=0
  25. Language                                 : Chinese
  26. Default                                  : Yes
  27. Forced                                   : No

  28. Audio
  29. ID                                       : 2
  30. Format                                   : DTS
  31. Format/Info                              : Digital Theater Systems
  32. Codec ID                                 : A_DTS
  33. Duration                                 : 1 h 39 min
  34. Bit rate mode                            : Constant
  35. Bit rate                                 : 1 509 kb/s
  36. Channel(s)                               : 6 channels
  37. Channel layout                           : C L R Ls Rs LFE
  38. Sampling rate                            : 48.0 kHz
  39. Frame rate                               : 93.750 FPS (512 SPF)
  40. Bit depth                                : 24 bits
  41. Compression mode                         : Lossy
  42. Stream size                              : 1.05 GiB (12%)
  43. Language                                 : Chinese
  44. Default                                  : Yes
  45. Forced                                   : No

  46. Text
  47. ID                                       : 3
  48. Format                                   : UTF-8
  49. Codec ID                                 : S_TEXT/UTF8
  50. Codec ID/Info                            : UTF-8 Plain Text
  51. Duration                                 : 1 h 35 min
  52. Bit rate                                 : 35 b/s
  53. Count of elements                        : 939
  54. Stream size                              : 24.9 KiB (0%)
  55. Language                                 : English
  56. Default                                  : Yes
  57. Forced                                   : No

  58. Menu
  59. 00:00:00.000                             : en:绗?01 绔?
  60. 00:04:29.833                             : en:绗?02 绔?
  61. 00:10:26.708                             : en:绗?03 绔?
  62. 00:16:53.042                             : en:绗?04 绔?
  63. 00:22:43.458                             : en:绗?05 绔?
  64. 00:27:42.500                             : en:绗?06 绔?
  65. 00:32:41.208                             : en:绗?07 绔?
  66. 00:38:10.042                             : en:绗?08 绔?
  67. 00:44:17.458                             : en:绗?09 绔?
  68. 00:49:38.125                             : en:绗?10 绔?
  69. 00:54:35.583                             : en:绗?11 绔?
  70. 00:59:18.292                             : en:绗?12 绔?
  71. 01:04:12.792                             : en:绗?13 绔?
  72. 01:08:58.958                             : en:绗?14 绔?
  73. 01:15:38.167                             : en:绗?15 绔?
  74. 01:20:22.042                             : en:绗?16 绔?
  75. 01:27:52.750                             : en:绗?17 绔?
  76. 01:31:59.917                             : en:绗?18 绔?
复制代码

白蛇:缘起 White.Snake.2019.CHINESE.1080p.BluRay.x264.DTS-CHD 8.54GB-2.png 白蛇:缘起 White.Snake.2019.CHINESE.1080p.BluRay.x264.DTS-CHD 8.54GB-3.png 白蛇:缘起 White.Snake.2019.CHINESE.1080p.BluRay.x264.DTS-CHD 8.54GB-1.png






回复

使用道具 举报

蓝光币
757
发表于 2020-1-29 09:03:22 | 显示全部楼层
谢谢楼主无私分享。
回复 支持 反对

使用道具 举报

蓝光币
620
发表于 2020-1-29 09:39:19 | 显示全部楼层
楼主发贴辛苦了,谢谢楼主分享!我觉得蓝光电影网是注册对了!
回复 支持 反对

使用道具 举报

蓝光币
143
发表于 2020-2-9 11:21:37 | 显示全部楼层
楼主发贴辛苦了,谢谢楼主分享!我觉得蓝光电影网是注册对了!
回复 支持 反对

使用道具 举报

蓝光币
2
发表于 2021-9-24 21:17:39 | 显示全部楼层
楼主发贴辛苦了,谢谢楼主分享!
回复 支持 反对

使用道具 举报

懒得打字嘛,点击右侧快捷回复 【右侧内容,后台自定义】
您需要登录后才可以回帖 登录 | 立即加入

本版积分规则

Archiver|小黑屋| 蓝光电影网 |网站地图

Copyright © 2021 Comsenz Inc. Powered by 蓝光电影网

蓝光电影网

本站内容由用户自主分享和转载自互联网,转载目的在于传递更多信息,并不代表本网赞同其观点和对其真实性负责。

如有侵权、违反国家法律政策行为,请联系我们,我们会第一时间及时清除和处理!

举报反馈邮箱:[email protected]

快速回复 返回顶部 返回列表