找回密码

蓝光电影网

查看: 455|回复: 8

[剧情] 强尼·阿雷格罗/虎穴歼仇 Johnny.Allegro.1949.1080p.BluRay.x264-BiPOLAR 5.47GB

[复制链接]
蓝光币
1020
发表于 2020-1-28 23:59:41 | 显示全部楼层 |阅读模式
强尼·阿雷格罗/虎穴歼仇 Johnny.Allegro.1949.1080p.BluRay.x264-BiPOLAR 5.47GB-1.png

译  名 强尼·阿雷格罗 / 虎穴歼仇
片  名 Johnny Allegro
年  代 1949
产  地 美国
类  别 剧情 / 犯罪 / 黑色电影
语  言 英语
上映日期 1949
IMDb评分  6.5/10 from 376 users
IMDb链接  https://www.imdb.com/title/tt0041527
豆瓣评分 0/10 from 0 users
豆瓣链接 https://movie.douban.com/subject/5066587/
片  长 USA: 81 分钟
导  演 Ted Tetzlaff
编  剧 Karen DeWolf
主  演 乔治·拉夫特 George Raft
       尼娜·弗彻 Nina Foch
       乔治·麦克雷迪 George Macready
       威尔·吉尔 Will Geer
       格洛丽亚·亨利 Gloria Henry
       Ivan Triesault


标  签 美国 | 1949 | 黑色电影 | Nina_Foch | 美国电影 | 40s | 犯罪 | 剧情

简  介  

  暂无相关剧情先容
  1. Video
  2. ID                                       : 1
  3. Format                                   : AVC
  4. Format/Info                              : Advanced Video Codec
  5. Format profile                           : [email protected]
  6. Format settings                          : CABAC / 4 Ref Frames
  7. Format settings, CABAC                   : Yes
  8. Format settings, Reference frames        : 4 frames
  9. Codec ID                                 : V_MPEG4/ISO/AVC
  10. Duration                                 : 1 h 21 min
  11. Bit rate                                 : 8 873 kb/s
  12. Width                                    : 1 456 pixels
  13. Height                                   : 1 080 pixels
  14. Display aspect ratio                     : 4:3
  15. Frame rate mode                          : Constant
  16. Frame rate                               : 23.976 (24000/1001) FPS
  17. Color space                              : YUV
  18. Chroma subsampling                       : 4:2:0
  19. Bit depth                                : 8 bits
  20. Scan type                                : Progressive
  21. Bits/(Pixel*Frame)                       : 0.235
  22. Stream size                              : 5.03 GiB (92%)
  23. Writing library                          : x264 core 159 r2991 1771b55
  24. Encoding settings                        : cabac=1 / ref=4 / deblock=1:-3:-3 / analyse=0x3:0x133 / me=umh / subme=9 / psy=1 / psy_rd=1.00:0.00 / mixed_ref=1 / me_range=16 / chroma_me=1 / trellis=2 / 8x8dct=1 / cqm=0 / deadzone=21,11 / fast_pskip=0 / chroma_qp_offset=-2 / threads=24 / lookahead_threads=2 / sliced_threads=0 / nr=0 / decimate=1 / interlaced=0 / bluray_compat=0 / constrained_intra=0 / bframes=3 / b_pyramid=2 / b_adapt=1 / b_bias=0 / direct=3 / weightb=1 / open_gop=0 / weightp=2 / keyint=240 / keyint_min=24 / scenecut=40 / intra_refresh=0 / rc_lookahead=50 / rc=2pass / mbtree=1 / bitrate=8873 / ratetol=1.0 / qcomp=0.60 / qpmin=0 / qpmax=69 / qpstep=4 / cplxblur=20.0 / qblur=0.5 / ip_ratio=1.40 / aq=1:1.00
  25. Language                                 : English
  26. Default                                  : Yes
  27. Forced                                   : No

  28. Audio
  29. ID                                       : 2
  30. Format                                   : DTS
  31. Format/Info                              : Digital Theater Systems
  32. Codec ID                                 : A_DTS
  33. Duration                                 : 1 h 21 min
  34. Bit rate mode                            : Constant
  35. Bit rate                                 : 768 kb/s
  36. Channel(s)                               : 1 channel
  37. Channel layout                           : C
  38. Sampling rate                            : 48.0 kHz
  39. Frame rate                               : 93.750 FPS (512 SPF)
  40. Bit depth                                : 24 bits
  41. Compression mode                         : Lossy
  42. Stream size                              : 446 MiB (8%)
  43. Language                                 : English
  44. Default                                  : Yes
  45. Forced                                   : No

  46. Text #1
  47. ID                                       : 3
  48. Format                                   : UTF-8
  49. Codec ID                                 : S_TEXT/UTF8
  50. Codec ID/Info                            : UTF-8 Plain Text
  51. Duration                                 : 1 h 19 min
  52. Bit rate                                 : 51 b/s
  53. Count of elements                        : 967
  54. Stream size                              : 30.0 KiB (0%)
  55. Title                                    : English
  56. Language                                 : English
  57. Default                                  : No
  58. Forced                                   : No

  59. Text #2
  60. ID                                       : 4
  61. Format                                   : UTF-8
  62. Codec ID                                 : S_TEXT/UTF8
  63. Codec ID/Info                            : UTF-8 Plain Text
  64. Duration                                 : 1 h 20 min
  65. Bit rate                                 : 55 b/s
  66. Count of elements                        : 1121
  67. Stream size                              : 33.2 KiB (0%)
  68. Title                                    : English SDH
  69. Language                                 : English
  70. Default                                  : No
  71. Forced                                   : No

  72. Menu
  73. 00:00:00.000                             : en:00:00:00.000
  74. 00:01:07.442                             : en:00:01:07.442
  75. 00:07:22.859                             : en:00:07:22.859
  76. 00:13:10.540                             : en:00:13:10.540
  77. 00:19:59.782                             : en:00:19:59.782
  78. 00:31:19.086                             : en:00:31:19.086
  79. 00:34:49.004                             : en:00:34:49.004
  80. 00:43:22.141                             : en:00:43:22.141
  81. 00:50:41.288                             : en:00:50:41.288
  82. 00:52:59.051                             : en:00:52:59.051
  83. 01:03:07.325                             : en:01:03:07.325
  84. 01:12:01.567                             : en:01:12:01.567
  85. 01:20:12.391                             : en:01:20:12.391
复制代码

强尼·阿雷格罗/虎穴歼仇 Johnny.Allegro.1949.1080p.BluRay.x264-BiPOLAR 5.47GB-2.png






回复

使用道具 举报

懒得打字嘛,点击右侧快捷回复 【右侧内容,后台自定义】
您需要登录后才可以回帖 登录 | 立即加入

本版积分规则

Archiver|小黑屋| 蓝光电影网 |网站地图

Copyright © 2021 Comsenz Inc. Powered by 蓝光电影网

蓝光电影网

本站内容由用户自主分享和转载自互联网,转载目的在于传递更多信息,并不代表本网赞同其观点和对其真实性负责。

如有侵权、违反国家法律政策行为,请联系我们,我们会第一时间及时清除和处理!

举报反馈邮箱:[email protected]

快速回复 返回顶部 返回列表