找回密码

蓝光电影网

查看: 618|回复: 7

[剧情] 无法投递/收件人不详 Address.Unknown.1944.1080p.BluRay.x264-BiPOLAR 5.47GB

[复制链接]
蓝光币
1020
发表于 2020-1-29 00:01:21 | 显示全部楼层 |阅读模式
没法投递/收件人不详 Address.Unknown.1944.1080p.BluRay.x264-BiPOLAR 5.47GB-1.png

译  名 没法投递 / 收件人不详
片  名 Address Unknown
年  代 1944
产  地 美国
类  别 剧情
语  言 英语
上映日期 1944-06-01
IMDb评分  6.8/10 from 538 users
IMDb链接  https://www.imdb.com/title/tt0036581
豆瓣评分 0/10 from 0 users
豆瓣链接 https://movie.douban.com/subject/1304358/
片  长 75 分钟
导  演 威廉·卡梅伦·孟席斯 William Cameron Menzies
编  剧 Herbert Dalmas / Kressmann Taylor
主  演 保罗·卢卡斯 Paul Lukas
       卡尔·埃斯蒙德 Carl Esmond
       彼得·范·埃克 Peter van Eyck
       麦迪·克里斯蒂安斯 Mady Christians
       莫里斯·卡诺夫斯基 Morris Carnovsky
       K.T. Stevens


标  签 美国电影 | 1944 | 黑色电影 | 癸巳 | 剧情 | Y-1940s | William_Cameron_Menzies | R-4星

简  介  

  暂无相关剧情先容

获奖情况  

  第17届奥斯卡金像奖(1945)
  黑白片最好艺术指导和室内布景(提名) Joseph Kish / 莱昂内尔·班克斯 / Walter Holscher
  剧情/笑剧片最好配乐(提名) Ernst Toch / Morris Stoloff
  1. Video
  2. ID                                       : 1
  3. Format                                   : AVC
  4. Format/Info                              : Advanced Video Codec
  5. Format profile                           : [email protected]
  6. Format settings                          : CABAC / 4 Ref Frames
  7. Format settings, CABAC                   : Yes
  8. Format settings, Reference frames        : 4 frames
  9. Codec ID                                 : V_MPEG4/ISO/AVC
  10. Duration                                 : 1 h 12 min
  11. Bit rate                                 : 10.1 Mb/s
  12. Width                                    : 1 440 pixels
  13. Height                                   : 1 080 pixels
  14. Display aspect ratio                     : 4:3
  15. Frame rate mode                          : Constant
  16. Frame rate                               : 23.976 (24000/1001) FPS
  17. Color space                              : YUV
  18. Chroma subsampling                       : 4:2:0
  19. Bit depth                                : 8 bits
  20. Scan type                                : Progressive
  21. Bits/(Pixel*Frame)                       : 0.270
  22. Stream size                              : 5.08 GiB (93%)
  23. Writing library                          : x264 core 159 r2991 1771b55
  24. Encoding settings                        : cabac=1 / ref=4 / deblock=1:-3:-3 / analyse=0x3:0x133 / me=umh / subme=9 / psy=1 / psy_rd=1.00:0.00 / mixed_ref=1 / me_range=16 / chroma_me=1 / trellis=2 / 8x8dct=1 / cqm=0 / deadzone=21,11 / fast_pskip=0 / chroma_qp_offset=-2 / threads=24 / lookahead_threads=2 / sliced_threads=0 / nr=0 / decimate=1 / interlaced=0 / bluray_compat=0 / constrained_intra=0 / bframes=3 / b_pyramid=2 / b_adapt=1 / b_bias=0 / direct=3 / weightb=1 / open_gop=0 / weightp=2 / keyint=240 / keyint_min=24 / scenecut=40 / intra_refresh=0 / rc_lookahead=50 / rc=2pass / mbtree=1 / bitrate=10059 / ratetol=1.0 / qcomp=0.60 / qpmin=0 / qpmax=69 / qpstep=4 / cplxblur=20.0 / qblur=0.5 / ip_ratio=1.40 / aq=1:1.00
  25. Language                                 : English
  26. Default                                  : Yes
  27. Forced                                   : No

  28. Audio
  29. ID                                       : 2
  30. Format                                   : DTS
  31. Format/Info                              : Digital Theater Systems
  32. Codec ID                                 : A_DTS
  33. Duration                                 : 1 h 12 min
  34. Bit rate mode                            : Constant
  35. Bit rate                                 : 768 kb/s
  36. Channel(s)                               : 1 channel
  37. Channel layout                           : C
  38. Sampling rate                            : 48.0 kHz
  39. Frame rate                               : 93.750 FPS (512 SPF)
  40. Bit depth                                : 24 bits
  41. Compression mode                         : Lossy
  42. Stream size                              : 397 MiB (7%)
  43. Language                                 : English
  44. Default                                  : Yes
  45. Forced                                   : No

  46. Text #1
  47. ID                                       : 3
  48. Format                                   : UTF-8
  49. Codec ID                                 : S_TEXT/UTF8
  50. Codec ID/Info                            : UTF-8 Plain Text
  51. Duration                                 : 1 h 10 min
  52. Bit rate                                 : 55 b/s
  53. Count of elements                        : 969
  54. Stream size                              : 28.6 KiB (0%)
  55. Title                                    : English
  56. Language                                 : English
  57. Default                                  : No
  58. Forced                                   : No

  59. Text #2
  60. ID                                       : 4
  61. Format                                   : UTF-8
  62. Codec ID                                 : S_TEXT/UTF8
  63. Codec ID/Info                            : UTF-8 Plain Text
  64. Duration                                 : 1 h 12 min
  65. Bit rate                                 : 59 b/s
  66. Count of elements                        : 1098
  67. Stream size                              : 31.5 KiB (0%)
  68. Title                                    : English SDH
  69. Language                                 : English
  70. Default                                  : No
  71. Forced                                   : No

  72. Menu
  73. 00:00:00.000                             : en:00:00:00.000
  74. 00:01:08.151                             : en:00:01:08.151
  75. 00:08:10.198                             : en:00:08:10.198
  76. 00:14:03.593                             : en:00:14:03.593
  77. 00:18:27.648                             : en:00:18:27.648
  78. 00:21:50.017                             : en:00:21:50.017
  79. 00:26:42.684                             : en:00:26:42.684
  80. 00:33:12.908                             : en:00:33:12.908
  81. 00:39:06.261                             : en:00:39:06.261
  82. 00:43:14.592                             : en:00:43:14.592
  83. 00:47:57.958                             : en:00:47:57.958
  84. 00:50:55.261                             : en:00:50:55.261
  85. 00:56:55.996                             : en:00:56:55.996
  86. 01:06:14.512                             : en:01:06:14.512
  87. 01:10:49.454                             : en:01:10:49.454
  88. 01:12:15.414                             : en:01:12:15.414
复制代码

没法投递/收件人不详 Address.Unknown.1944.1080p.BluRay.x264-BiPOLAR 5.47GB-2.png






回复

使用道具 举报

蓝光币
619
发表于 2020-1-31 10:41:21 | 显示全部楼层

既然你诚信诚意的推荐了,那我就勉为其难的看看吧!蓝光电影网不走平凡路。
回复 支持 反对

使用道具 举报

懒得打字嘛,点击右侧快捷回复 【右侧内容,后台自定义】
您需要登录后才可以回帖 登录 | 立即加入

本版积分规则

Archiver|小黑屋| 蓝光电影网 |网站地图

Copyright © 2021 Comsenz Inc. Powered by 蓝光电影网

蓝光电影网

本站内容由用户自主分享和转载自互联网,转载目的在于传递更多信息,并不代表本网赞同其观点和对其真实性负责。

如有侵权、违反国家法律政策行为,请联系我们,我们会第一时间及时清除和处理!

举报反馈邮箱:[email protected]

快速回复 返回顶部 返回列表