找回密码

蓝光电影网

查看: 500|回复: 1

[剧情] 巴黎任务 Assignment.Paris.1952.1080p.BluRay.x264-BiPOLAR 5.47GB

[复制链接]
蓝光币
1022
发表于 2020-1-29 00:02:09 | 显示全部楼层 |阅读模式
巴黎使命 Assignment.Paris.1952.1080p.BluRay.x264-BiPOLAR 5.47GB-1.png

译  名 巴黎使命
片  名 Assignment: Paris
年  代 1952
产  地 美国
类  别 剧情
语  言 英语
上映日期 1952
IMDb评分  6.2/10 from 319 users
IMDb链接  https://www.imdb.com/title/tt0044379
豆瓣评分 0/10 from 0 users
豆瓣链接 https://movie.douban.com/subject/5065496/
片  长 85 分钟
导  演 罗伯特·帕里什 Robert Parrish
编  剧 William Bowers
主  演 达纳·安德鲁斯 Dana Andrews
       M?rta Torén
       乔治·桑德斯 George Sanders
       奥黛丽·托特 Audrey Totter
       Sandro Giglio


标  签 美国 | 1952 | 黑色电影 | 美国电影 | 罗伯特.帕里什 | 乔治·桑德斯 | Robert_Parrish | George_Sanders

简  介  

  暂无相关剧情先容

获奖情况  

  第10届金球奖(1953)
  电影类 最好促进国际领会电影(提名)
  1. Video
  2. ID                                       : 1
  3. Format                                   : AVC
  4. Format/Info                              : Advanced Video Codec
  5. Format profile                           : [email protected]
  6. Format settings                          : CABAC / 4 Ref Frames
  7. Format settings, CABAC                   : Yes
  8. Format settings, Reference frames        : 4 frames
  9. Codec ID                                 : V_MPEG4/ISO/AVC
  10. Duration                                 : 1 h 24 min
  11. Bit rate                                 : 8 509 kb/s
  12. Width                                    : 1 440 pixels
  13. Height                                   : 1 080 pixels
  14. Display aspect ratio                     : 4:3
  15. Frame rate mode                          : Constant
  16. Frame rate                               : 23.976 (24000/1001) FPS
  17. Color space                              : YUV
  18. Chroma subsampling                       : 4:2:0
  19. Bit depth                                : 8 bits
  20. Scan type                                : Progressive
  21. Bits/(Pixel*Frame)                       : 0.228
  22. Stream size                              : 5.01 GiB (92%)
  23. Writing library                          : x264 core 159 r2991 1771b55
  24. Encoding settings                        : cabac=1 / ref=4 / deblock=1:-3:-3 / analyse=0x3:0x133 / me=umh / subme=9 / psy=1 / psy_rd=1.00:0.00 / mixed_ref=1 / me_range=16 / chroma_me=1 / trellis=2 / 8x8dct=1 / cqm=0 / deadzone=21,11 / fast_pskip=0 / chroma_qp_offset=-2 / threads=24 / lookahead_threads=2 / sliced_threads=0 / nr=0 / decimate=1 / interlaced=0 / bluray_compat=0 / constrained_intra=0 / bframes=3 / b_pyramid=2 / b_adapt=1 / b_bias=0 / direct=3 / weightb=1 / open_gop=0 / weightp=2 / keyint=240 / keyint_min=24 / scenecut=40 / intra_refresh=0 / rc_lookahead=50 / rc=2pass / mbtree=1 / bitrate=8509 / ratetol=1.0 / qcomp=0.60 / qpmin=0 / qpmax=69 / qpstep=4 / cplxblur=20.0 / qblur=0.5 / ip_ratio=1.40 / aq=1:1.00
  25. Language                                 : English
  26. Default                                  : Yes
  27. Forced                                   : No

  28. Audio
  29. ID                                       : 2
  30. Format                                   : DTS
  31. Format/Info                              : Digital Theater Systems
  32. Codec ID                                 : A_DTS
  33. Duration                                 : 1 h 24 min
  34. Bit rate mode                            : Constant
  35. Bit rate                                 : 768 kb/s
  36. Channel(s)                               : 1 channel
  37. Channel layout                           : C
  38. Sampling rate                            : 48.0 kHz
  39. Frame rate                               : 93.750 FPS (512 SPF)
  40. Bit depth                                : 24 bits
  41. Compression mode                         : Lossy
  42. Stream size                              : 463 MiB (8%)
  43. Language                                 : English
  44. Default                                  : Yes
  45. Forced                                   : No

  46. Text #1
  47. ID                                       : 3
  48. Format                                   : UTF-8
  49. Codec ID                                 : S_TEXT/UTF8
  50. Codec ID/Info                            : UTF-8 Plain Text
  51. Duration                                 : 1 h 22 min
  52. Bit rate                                 : 76 b/s
  53. Count of elements                        : 1549
  54. Stream size                              : 46.3 KiB (0%)
  55. Title                                    : English
  56. Language                                 : English
  57. Default                                  : No
  58. Forced                                   : No

  59. Text #2
  60. ID                                       : 4
  61. Format                                   : UTF-8
  62. Codec ID                                 : S_TEXT/UTF8
  63. Codec ID/Info                            : UTF-8 Plain Text
  64. Duration                                 : 1 h 24 min
  65. Bit rate                                 : 79 b/s
  66. Count of elements                        : 1646
  67. Stream size                              : 48.7 KiB (0%)
  68. Title                                    : English SDH
  69. Language                                 : English
  70. Default                                  : No
  71. Forced                                   : No

  72. Menu
  73. 00:00:00.000                             : en:00:00:00.000
  74. 00:01:17.286                             : en:00:01:17.286
  75. 00:07:14.517                             : en:00:07:14.517
  76. 00:13:49.579                             : en:00:13:49.579
  77. 00:19:24.246                             : en:00:19:24.246
  78. 00:24:00.356                             : en:00:24:00.356
  79. 00:29:09.831                             : en:00:29:09.831
  80. 00:32:43.378                             : en:00:32:43.378
  81. 00:35:51.566                             : en:00:35:51.566
  82. 00:40:32.180                             : en:00:40:32.180
  83. 00:53:11.897                             : en:00:53:11.897
  84. 00:55:24.905                             : en:00:55:24.905
  85. 01:03:23.550                             : en:01:03:23.550
  86. 01:10:01.948                             : en:01:10:01.948
  87. 01:18:23.741                             : en:01:18:23.741
  88. 01:24:19.221                             : en:01:24:19.221
复制代码

巴黎使命 Assignment.Paris.1952.1080p.BluRay.x264-BiPOLAR 5.47GB-2.png






回复

使用道具 举报

蓝光币
624
发表于 2020-1-30 10:54:45 | 显示全部楼层

论坛不能没有像楼主这样的人才啊!我会一直支持蓝光电影网
回复 支持 反对

使用道具 举报

懒得打字嘛,点击右侧快捷回复 【右侧内容,后台自定义】
您需要登录后才可以回帖 登录 | 立即加入

本版积分规则

Archiver|小黑屋| 蓝光电影网 |网站地图

Copyright © 2021 Comsenz Inc. Powered by 蓝光电影网

蓝光电影网

本站内容由用户自主分享和转载自互联网,转载目的在于传递更多信息,并不代表本网赞同其观点和对其真实性负责。

如有侵权、违反国家法律政策行为,请联系我们,我们会第一时间及时清除和处理!

举报反馈邮箱:[email protected]

快速回复 返回顶部 返回列表