找回密码

蓝光电影网

查看: 553|回复: 1

[剧情] 谎言大师/大说谎家 The.Good.Liar.2019.1080p.BluRay.REMUX.AVC.DTS-HD.MA.5.1-FGT 29.14GB

[复制链接]
蓝光币
1022
发表于 2020-1-29 18:34:06 | 显示全部楼层 |阅读模式
假话大师/大扯谎家 The.Good.Liar.2019.1080p.BluRay.REMUX.AVC.DTS-HD.MA.5.1-FGT 29.14GB-1.png

译  名 假话大师 / 大扯谎家(台) / 好骗子 / 圈套谎情(港)
片  名 The Good Liar
年  代 2019
产  地 美国
类  别 剧情
语  言 英语
上映日期 2019-11-15(美国)
IMDb评分  6.5/10 from 6488 users
IMDb链接  https://www.imdb.com/title/tt5563334
豆瓣评分 6.7/10 from 745 users
豆瓣链接 https://movie.douban.com/subject/30167633/
片  长 109分钟
导  演 比尔·康顿 Bill Condon
编  剧 杰弗里·哈彻 Jeffrey Hatcher / 尼古拉斯·希尔勒 Nicholas Searle
主  演 海伦·米伦 Helen Mirren
       伊恩·麦克莱恩 Ian McKellen
       拉塞尔·托维 Russell Tovey
       马克·路易斯·琼斯 Mark Lewis Jones
       吉姆·卡特 Jim Carter
       约翰内斯·豪克尔·约翰内森 Jóhannes Haukur Jóhannesson
       席琳·邦金斯 Celine Buckens
       贝西·卡特 Bessie Carter
       亚历山大·约瓦诺维奇 Aleksandar Jovanovic
       菲尔·邓斯特 Phil Dunster
       迈克尔·卡尔金 Michael Culkin
       劳里·戴维森 Laurie Davidson
       露丝·霍洛克斯 Ruth Horrocks
       杰奎琳·拉姆娜莱恩 Jacqueline Ramnarine
       内尔·威廉姆斯 Nell Williams
       贾格·帕特尔 Jag Patel
       莉莉·多斯沃斯 埃文斯 Lily Dodsworth-Evans
       斯特拉·斯托克尔 Stella Stocker
       朱利安·费罗 Julian Ferro
       马诺伊·阿南德 Manoj Anand
       弗兰·塔格 Fran Targ
       斯派克·怀特 Spike White
       凯文·马塔迪恩 Kevin Matadeen


标  签 悬疑 | 美国 | 2019 | 剧情 | 恋爱 | 电影 | 黑色诙谐 | 惊悚

简  介  

  海伦·米伦与伊恩·麦克莱恩行将出演新线的剧情片《The Good Liar》(优异的骗子,暂译)。影片将由比尔·康顿执导,他比来的作品,就是在全天下狂揽12亿美圆的《美男与野兽》。
  在影片中,伊恩爵士饰演一位职业骗子,当他碰到海伦·米伦饰演的敷裕孀妇时,简直不敢相信自己的命运。这位孀妇把自己的生活和家门都向骗子翻开,骗子却发现自己是真的关心她,让这笔本该骗了就撤的买卖,酿成了像走钢丝一样的危险关系。

获奖情况  

  第24届金卫星奖(2020)
  电影部分 剧情片最好女配角(提名) 海伦·米伦
  1. Video
  2. ID                                       : 1
  3. Format                                   : AVC
  4. Format/Info                              : Advanced Video Codec
  5. Format profile                           : [email protected]
  6. Format settings                          : CABAC / 4 Ref Frames
  7. Format settings, CABAC                   : Yes
  8. Format settings, Reference frames        : 4 frames
  9. Codec ID                                 : V_MPEG4/ISO/AVC
  10. Duration                                 : 1 h 49 min
  11. Bit rate mode                            : Variable
  12. Bit rate                                 : 34.1 Mb/s
  13. Maximum bit rate                         : 37.0 Mb/s
  14. Width                                    : 1 920 pixels
  15. Height                                   : 1 080 pixels
  16. Display aspect ratio                     : 16:9
  17. Frame rate mode                          : Constant
  18. Frame rate                               : 23.976 (24000/1001) FPS
  19. Color space                              : YUV
  20. Chroma subsampling                       : 4:2:0
  21. Bit depth                                : 8 bits
  22. Scan type                                : Progressive
  23. Bits/(Pixel*Frame)                       : 0.686
  24. Stream size                              : 26.1 GiB (90%)
  25. Title                                    : The.Good.Liar.2019.1080p.BluRay.REMUX.AVC.DTS-HD.MA.5.1-FGT
  26. Language                                 : English
  27. Default                                  : No
  28. Forced                                   : No

  29. Audio #1
  30. ID                                       : 2
  31. Format                                   : DTS XLL
  32. Format/Info                              : Digital Theater Systems
  33. Commercial name                          : DTS-HD Master Audio
  34. Codec ID                                 : A_DTS
  35. Duration                                 : 1 h 49 min
  36. Bit rate mode                            : Variable
  37. Bit rate                                 : 2 141 kb/s
  38. Channel(s)                               : 6 channels
  39. Channel layout                           : C L R Ls Rs LFE
  40. Sampling rate                            : 48.0 kHz
  41. Frame rate                               : 93.750 FPS (512 SPF)
  42. Bit depth                                : 16 bits
  43. Compression mode                         : Lossless
  44. Stream size                              : 1.64 GiB (6%)
  45. Title                                    : The.Good.Liar.2019.1080p.BluRay.REMUX.AVC.DTS-HD.MA.5.1-FGT
  46. Language                                 : English
  47. Default                                  : Yes
  48. Forced                                   : No

  49. Audio #2
  50. ID                                       : 3
  51. Format                                   : AC-3
  52. Format/Info                              : Audio Coding 3
  53. Commercial name                          : Dolby Digital
  54. Codec ID                                 : A_AC3
  55. Duration                                 : 1 h 49 min
  56. Bit rate mode                            : Constant
  57. Bit rate                                 : 448 kb/s
  58. Channel(s)                               : 6 channels
  59. Channel layout                           : L R C LFE Ls Rs
  60. Sampling rate                            : 48.0 kHz
  61. Frame rate                               : 31.250 FPS (1536 SPF)
  62. Bit depth                                : 16 bits
  63. Compression mode                         : Lossy
  64. Stream size                              : 351 MiB (1%)
  65. Title                                    : The.Good.Liar.2019.1080p.BluRay.REMUX.AVC.DTS-HD.MA.5.1-FGT
  66. Language                                 : English
  67. Service kind                             : Complete Main
  68. Default                                  : No
  69. Forced                                   : No

  70. Audio #3
  71. ID                                       : 4
  72. Format                                   : AC-3
  73. Format/Info                              : Audio Coding 3
  74. Commercial name                          : Dolby Digital
  75. Codec ID                                 : A_AC3
  76. Duration                                 : 1 h 49 min
  77. Bit rate mode                            : Constant
  78. Bit rate                                 : 448 kb/s
  79. Channel(s)                               : 6 channels
  80. Channel layout                           : L R C LFE Ls Rs
  81. Sampling rate                            : 48.0 kHz
  82. Frame rate                               : 31.250 FPS (1536 SPF)
  83. Bit depth                                : 16 bits
  84. Compression mode                         : Lossy
  85. Stream size                              : 351 MiB (1%)
  86. Title                                    : The.Good.Liar.2019.1080p.BluRay.REMUX.AVC.DTS-HD.MA.5.1-FGT
  87. Language                                 : French
  88. Service kind                             : Complete Main
  89. Default                                  : No
  90. Forced                                   : No

  91. Audio #4
  92. ID                                       : 5
  93. Format                                   : AC-3
  94. Format/Info                              : Audio Coding 3
  95. Commercial name                          : Dolby Digital
  96. Codec ID                                 : A_AC3
  97. Duration                                 : 1 h 49 min
  98. Bit rate mode                            : Constant
  99. Bit rate                                 : 448 kb/s
  100. Channel(s)                               : 6 channels
  101. Channel layout                           : L R C LFE Ls Rs
  102. Sampling rate                            : 48.0 kHz
  103. Frame rate                               : 31.250 FPS (1536 SPF)
  104. Bit depth                                : 16 bits
  105. Compression mode                         : Lossy
  106. Stream size                              : 351 MiB (1%)
  107. Title                                    : The.Good.Liar.2019.1080p.BluRay.REMUX.AVC.DTS-HD.MA.5.1-FGT
  108. Language                                 : Spanish
  109. Service kind                             : Complete Main
  110. Default                                  : No
  111. Forced                                   : No

  112. Audio #5
  113. ID                                       : 6
  114. Format                                   : AC-3
  115. Format/Info                              : Audio Coding 3
  116. Commercial name                          : Dolby Digital
  117. Codec ID                                 : A_AC3
  118. Duration                                 : 1 h 49 min
  119. Bit rate mode                            : Constant
  120. Bit rate                                 : 448 kb/s
  121. Channel(s)                               : 6 channels
  122. Channel layout                           : L R C LFE Ls Rs
  123. Sampling rate                            : 48.0 kHz
  124. Frame rate                               : 31.250 FPS (1536 SPF)
  125. Bit depth                                : 16 bits
  126. Compression mode                         : Lossy
  127. Stream size                              : 351 MiB (1%)
  128. Title                                    : The.Good.Liar.2019.1080p.BluRay.REMUX.AVC.DTS-HD.MA.5.1-FGT
  129. Language                                 : Portuguese
  130. Service kind                             : Complete Main
  131. Default                                  : No
  132. Forced                                   : No

  133. Text #1
  134. ID                                       : 7
  135. Format                                   : UTF-8
  136. Codec ID                                 : S_TEXT/UTF8
  137. Codec ID/Info                            : UTF-8 Plain Text
  138. Duration                                 : 1 h 41 min
  139. Bit rate                                 : 55 b/s
  140. Count of elements                        : 1471
  141. Stream size                              : 41.2 KiB (0%)
  142. Title                                    : English-SRT
  143. Language                                 : English
  144. Default                                  : Yes
  145. Forced                                   : No

  146. Text #2
  147. ID                                       : 8
  148. Format                                   : PGS
  149. Muxing mode                              : zlib
  150. Codec ID                                 : S_HDMV/PGS
  151. Codec ID/Info                            : Picture based subtitle format used on BDs/HD-DVDs
  152. Duration                                 : 1 h 43 min
  153. Bit rate                                 : 36.5 kb/s
  154. Count of elements                        : 3088
  155. Stream size                              : 27.1 MiB (0%)
  156. Title                                    : English-PGS
  157. Language                                 : English
  158. Default                                  : No
  159. Forced                                   : No

  160. Text #3
  161. ID                                       : 9
  162. Format                                   : PGS
  163. Muxing mode                              : zlib
  164. Codec ID                                 : S_HDMV/PGS
  165. Codec ID/Info                            : Picture based subtitle format used on BDs/HD-DVDs
  166. Duration                                 : 1 h 48 min
  167. Bit rate                                 : 28.0 kb/s
  168. Count of elements                        : 2870
  169. Stream size                              : 21.7 MiB (0%)
  170. Title                                    : French-PGS
  171. Language                                 : French
  172. Default                                  : No
  173. Forced                                   : No

  174. Text #4
  175. ID                                       : 10
  176. Format                                   : PGS
  177. Muxing mode                              : zlib
  178. Codec ID                                 : S_HDMV/PGS
  179. Codec ID/Info                            : Picture based subtitle format used on BDs/HD-DVDs
  180. Duration                                 : 1 h 48 min
  181. Bit rate                                 : 31.5 kb/s
  182. Count of elements                        : 2794
  183. Stream size                              : 24.5 MiB (0%)
  184. Title                                    : Spanish-PGS
  185. Language                                 : Spanish
  186. Default                                  : No
  187. Forced                                   : No

  188. Text #5
  189. ID                                       : 11
  190. Format                                   : PGS
  191. Muxing mode                              : zlib
  192. Codec ID                                 : S_HDMV/PGS
  193. Codec ID/Info                            : Picture based subtitle format used on BDs/HD-DVDs
  194. Duration                                 : 1 h 48 min
  195. Bit rate                                 : 31.0 kb/s
  196. Count of elements                        : 2796
  197. Stream size                              : 24.1 MiB (0%)
  198. Title                                    : Portuguese-PGS
  199. Language                                 : Portuguese
  200. Default                                  : No
  201. Forced                                   : No

  202. Text #6
  203. ID                                       : 12
  204. Format                                   : PGS
  205. Muxing mode                              : zlib
  206. Codec ID                                 : S_HDMV/PGS
  207. Codec ID/Info                            : Picture based subtitle format used on BDs/HD-DVDs
  208. Duration                                 : 1 h 37 min
  209. Bit rate                                 : 1 553 b/s
  210. Count of elements                        : 158
  211. Stream size                              : 1.09 MiB (0%)
  212. Title                                    : French-FORCED-PGS
  213. Language                                 : French
  214. Default                                  : No
  215. Forced                                   : No

  216. Text #7
  217. ID                                       : 13
  218. Format                                   : PGS
  219. Muxing mode                              : zlib
  220. Codec ID                                 : S_HDMV/PGS
  221. Codec ID/Info                            : Picture based subtitle format used on BDs/HD-DVDs
  222. Duration                                 : 1 h 20 min
  223. Bit rate                                 : 1 291 b/s
  224. Count of elements                        : 100
  225. Stream size                              : 765 KiB (0%)
  226. Title                                    : Spanish-FORCED-PGS
  227. Language                                 : Spanish
  228. Default                                  : No
  229. Forced                                   : No

  230. Text #8
  231. ID                                       : 14
  232. Format                                   : PGS
  233. Muxing mode                              : zlib
  234. Codec ID                                 : S_HDMV/PGS
  235. Codec ID/Info                            : Picture based subtitle format used on BDs/HD-DVDs
  236. Duration                                 : 34 min 16 s
  237. Bit rate                                 : 2 776 b/s
  238. Count of elements                        : 94
  239. Stream size                              : 697 KiB (0%)
  240. Title                                    : Portuguese-FORCED-PGS
  241. Language                                 : Portuguese
  242. Default                                  : No
  243. Forced                                   : No

  244. Menu
  245. 00:00:00.000                             : en:Chapter 01
  246. 00:07:26.028                             : en:Chapter 02
  247. 00:17:30.090                             : en:Chapter 03
  248. 00:26:54.112                             : en:Chapter 04
  249. 00:34:31.652                             : en:Chapter 05
  250. 00:43:15.843                             : en:Chapter 06
  251. 00:52:14.339                             : en:Chapter 07
  252. 01:00:50.772                             : en:Chapter 08
  253. 01:08:18.177                             : en:Chapter 09
  254. 01:17:54.711                             : en:Chapter 10
  255. 01:27:05.720                             : en:Chapter 11
  256. 01:36:41.837                             : en:Chapter 12
  257. 01:45:10.178                             : en:Chapter 13
复制代码

假话大师/大扯谎家 The.Good.Liar.2019.1080p.BluRay.REMUX.AVC.DTS-HD.MA.5.1-FGT 29.14GB-2.png 假话大师/大扯谎家 The.Good.Liar.2019.1080p.BluRay.REMUX.AVC.DTS-HD.MA.5.1-FGT 29.14GB-3.png 假话大师/大扯谎家 The.Good.Liar.2019.1080p.BluRay.REMUX.AVC.DTS-HD.MA.5.1-FGT 29.14GB-4.png






回复

使用道具 举报

懒得打字嘛,点击右侧快捷回复 【右侧内容,后台自定义】
您需要登录后才可以回帖 登录 | 立即加入

本版积分规则

Archiver|小黑屋| 蓝光电影网 |网站地图

Copyright © 2021 Comsenz Inc. Powered by 蓝光电影网

蓝光电影网

本站内容由用户自主分享和转载自互联网,转载目的在于传递更多信息,并不代表本网赞同其观点和对其真实性负责。

如有侵权、违反国家法律政策行为,请联系我们,我们会第一时间及时清除和处理!

举报反馈邮箱:[email protected]

快速回复 返回顶部 返回列表