找回密码

蓝光电影网

查看: 1016|回复: 5

[REMUX.HEVC] 睡梦医生 Doctor.Sleep.2019.THEATRICAL.2160p.BluRay.REMUX.HEVC.DTS-HD.MA.TrueHD.7.1.Atmos-FGT 80.53GB

[复制链接]
蓝光币
1022
发表于 2020-1-29 18:35:57 | 显示全部楼层 |阅读模式
睡梦医生 Doctor.Sleep.2019.THEATRICAL.2160p.BluRay.REMUX.HEVC.DTS-HD.MA.TrueHD.7.1.Atmos-FGT 80.53GB-1.png

译  名 睡梦医生 / Dr. Sleep / 《闪灵》续集 / 安息医生(台) / 就寝医师 / 就寝医生 / 长逝医生
片  名 Doctor Sleep
年  代 2019
产  地 美国 / 英国
类  别 剧情 / 惊悚 / 可骇 / 奇异
语  言 英语
上映日期 2019-10-30(法国) / 2019-10-31(英国) / 2019-11-08(美国)
IMDb评分  7.5/10 from 56337 users
IMDb链接  https://www.imdb.com/title/tt5606664
豆瓣评分 6.8/10 from 9257 users
豆瓣链接 https://movie.douban.com/subject/25932065/
片  长 151分钟
导  演 迈克·弗拉纳根 Mike Flanagan
编  剧 斯蒂芬·金 Stephen King / 迈克·弗拉纳根 Mike Flanagan
主  演 伊万·麦克格雷格 Ewan McGregor
       丽贝卡·弗格森 Rebecca Ferguson
       凯丽·卡伦 Kyliegh Curran
       雅各布·特伦布莱 Jacob Tremblay
       卡雷尔·斯特鲁基 Carel Struycken
       丹尼·劳埃德 Danny Lloyd
       艾米丽·阿琳·林德 Emily Alyn Lind
       克利夫·柯蒂斯 Cliff Curtis
       扎恩·迈克拉农 Zahn McClarnon
       切尔西·塔尔玛琪 Chelsea Talmadge
       艾丽克斯·埃索 Alex Essoe
       布鲁斯·格林伍德 Bruce Greenwood
       乔赛琳·唐娜休 Jocelin Donahue
       卡尔·卢波利 Carl Lumbly
       维奥莱特·麦格劳 Violet McGraw
       凯瑟琳·帕克 Catherine Parker
       罗伯特·朗斯特里特 Robert Longstreet
       赛琳娜·安杜兹 Selena Anduze
       尼古拉斯·普罗约尔 Nicholas Pryor
       贝瑟妮·安妮·林德 Bethany Anne Lind
       查尔斯·格林 Charles Green
       扎克瑞·莫莫 Zackary Momoh
       杰森·戴维斯 Jason Davis
       胡安·贾斯帕 Juan Gaspard
       路易斯·桑切斯 Luis Sanchez


标  签 可骇 | 惊悚 | 闪灵续集 | 美国 | 灵异 | 2019 | 小说改编 | 奇异

简  介  

  《闪灵》续集《就寝医师》(Doctor Sleep)北美定档2020年1月24日,仍然按照斯蒂芬·金的同名小说改编,迈克·弗拉纳甘(《杰罗德游戏》《灭亡占卜2》《梦醒之前》)执导。本片聚焦闪灵里的儿子Danny Torrance,履历了Overlook Hotel里可怕的童年时光后,他已经流浪了几十年,渴望摆脱父亲的失望、酒精、暴力等特质,终极假寓在新罕布什尔州的一个小镇上,这是一个支持他的AA制社区,他在一野生老院找到工作,在那边他残余的“闪灵”之力为病笃之人供给了相当重要的终极抚慰。在一只要预知才能的猫的帮助下,他成为了“就寝医师”。2001年女婴Abra Stone诞生,她逐步起头展现超自然之力,似乎猜测到了911事务。她缓慢而无意地与Danny建立起心灵感应的纽带,随着她的长大,气力也比Danny的加倍强大,Danny被重新激起他心中的恶魔,并呼唤他为Abra的灵魂和保存战役。
  弗拉纳甘重写剧本,此前由Akiva Goldsman改编。
  1. Video #1
  2. ID                                       : 1
  3. Format                                   : HEVC
  4. Format/Info                              : High Efficiency Video Coding
  5. Format profile                           : Main [email protected]@High
  6. HDR format                               : SMPTE ST 2094 App 4, Version 1, HDR10+ Profile B compatible
  7. Codec ID                                 : V_MPEGH/ISO/HEVC
  8. Duration                                 : 2 h 32 min
  9. Bit rate                                 : 63.8 Mb/s
  10. Width                                    : 3 840 pixels
  11. Height                                   : 2 160 pixels
  12. Display aspect ratio                     : 16:9
  13. Frame rate mode                          : Constant
  14. Frame rate                               : 23.976 (24000/1001) FPS
  15. Color space                              : YUV
  16. Chroma subsampling                       : 4:2:0 (Type 2)
  17. Bit depth                                : 10 bits
  18. Bits/(Pixel*Frame)                       : 0.321
  19. Stream size                              : 67.7 GiB (84%)
  20. Title                                    : Doctor.Sleep.2019.THEATRICAL.2160p.BluRay.REMUX.HEVC.DTS-HD.MA.TrueHD.7.1.Atmos-FGT
  21. Language                                 : English
  22. Default                                  : Yes
  23. Forced                                   : No
  24. Color range                              : Limited
  25. Color primaries                          : BT.2020
  26. Transfer characteristics                 : PQ
  27. Matrix coefficients                      : BT.2020 non-constant
  28. Mastering display color primaries        : Display P3
  29. Mastering display luminance              : min: 0.0001 cd/m2, max: 1000 cd/m2
  30. Maximum Content Light Level              : 745 cd/m2
  31. Maximum Frame-Average Light Level        : 47 cd/m2

  32. Video #2
  33. ID                                       : 2
  34. Format                                   : HEVC
  35. Format/Info                              : High Efficiency Video Coding
  36. Format profile                           : Main [email protected]@High
  37. HDR format                               : SMPTE ST 2086, HDR10 compatible
  38. Codec ID                                 : V_MPEGH/ISO/HEVC
  39. Duration                                 : 2 h 32 min
  40. Bit rate                                 : 63.1 kb/s
  41. Width                                    : 1 920 pixels
  42. Height                                   : 1 080 pixels
  43. Display aspect ratio                     : 16:9
  44. Frame rate mode                          : Constant
  45. Frame rate                               : 23.976 (24000/1001) FPS
  46. Color space                              : YUV
  47. Chroma subsampling                       : 4:2:0 (Type 2)
  48. Bit depth                                : 10 bits
  49. Bits/(Pixel*Frame)                       : 0.001
  50. Stream size                              : 68.6 MiB (0%)
  51. Title                                    : Doctor.Sleep.2019.THEATRICAL.2160p.BluRay.REMUX.HEVC.DTS-HD.MA.TrueHD.7.1.Atmos-FGT
  52. Language                                 : English
  53. Default                                  : No
  54. Forced                                   : No
  55. Color range                              : Limited
  56. Color primaries                          : BT.2020
  57. Transfer characteristics                 : PQ
  58. Matrix coefficients                      : BT.2020 non-constant
  59. Mastering display color primaries        : Display P3
  60. Mastering display luminance              : min: 0.0001 cd/m2, max: 1000 cd/m2

  61. Audio #1
  62. ID                                       : 3
  63. Format                                   : MLP FBA 16-ch
  64. Format/Info                              : Meridian Lossless Packing FBA with 16-channel presentation
  65. Commercial name                          : Dolby TrueHD with Dolby Atmos
  66. Codec ID                                 : A_TRUEHD
  67. Duration                                 : 2 h 32 min
  68. Bit rate mode                            : Variable
  69. Bit rate                                 : 3 939 kb/s
  70. Maximum bit rate                         : 7 347 kb/s
  71. Channel(s)                               : 8 channels
  72. Channel layout                           : L R C LFE Ls Rs Lb Rb
  73. Sampling rate                            : 48.0 kHz
  74. Frame rate                               : 1 200.000 FPS (40 SPF)
  75. Compression mode                         : Lossless
  76. Stream size                              : 4.18 GiB (5%)
  77. Title                                    : Doctor.Sleep.2019.THEATRICAL.2160p.BluRay.REMUX.HEVC.DTS-HD.MA.TrueHD.7.1.Atmos-FGT
  78. Language                                 : English
  79. Default                                  : Yes
  80. Forced                                   : No
  81. Number of dynamic objects                : 15
  82. Bed channel count                        : 1 channel
  83. Bed channel configuration                : LFE

  84. Audio #2
  85. ID                                       : 4
  86. Format                                   : DTS XLL
  87. Format/Info                              : Digital Theater Systems
  88. Commercial name                          : DTS-HD Master Audio
  89. Codec ID                                 : A_DTS
  90. Duration                                 : 2 h 32 min
  91. Bit rate mode                            : Variable
  92. Bit rate                                 : 4 101 kb/s
  93. Channel(s)                               : 8 channels
  94. Channel layout                           : C L R LFE Lb Rb Lss Rss
  95. Sampling rate                            : 48.0 kHz
  96. Frame rate                               : 93.750 FPS (512 SPF)
  97. Bit depth                                : 24 bits
  98. Compression mode                         : Lossless
  99. Stream size                              : 4.35 GiB (5%)
  100. Title                                    : Doctor.Sleep.2019.THEATRICAL.2160p.BluRay.REMUX.HEVC.DTS-HD.MA.TrueHD.7.1.Atmos-FGT
  101. Language                                 : English
  102. Default                                  : No
  103. Forced                                   : No

  104. Audio #3
  105. ID                                       : 5
  106. Format                                   : AC-3
  107. Format/Info                              : Audio Coding 3
  108. Commercial name                          : Dolby Digital
  109. Codec ID                                 : A_AC3
  110. Duration                                 : 2 h 32 min
  111. Bit rate mode                            : Constant
  112. Bit rate                                 : 640 kb/s
  113. Channel(s)                               : 6 channels
  114. Channel layout                           : L R C LFE Ls Rs
  115. Sampling rate                            : 48.0 kHz
  116. Frame rate                               : 31.250 FPS (1536 SPF)
  117. Bit depth                                : 16 bits
  118. Compression mode                         : Lossy
  119. Stream size                              : 696 MiB (1%)
  120. Title                                    : Doctor.Sleep.2019.THEATRICAL.2160p.BluRay.REMUX.HEVC.DTS-HD.MA.TrueHD.7.1.Atmos-FGT
  121. Language                                 : English
  122. Service kind                             : Complete Main
  123. Default                                  : No
  124. Forced                                   : No

  125. Audio #4
  126. ID                                       : 6
  127. Format                                   : AC-3
  128. Format/Info                              : Audio Coding 3
  129. Commercial name                          : Dolby Digital
  130. Codec ID                                 : A_AC3
  131. Duration                                 : 2 h 32 min
  132. Bit rate mode                            : Constant
  133. Bit rate                                 : 448 kb/s
  134. Channel(s)                               : 6 channels
  135. Channel layout                           : L R C LFE Ls Rs
  136. Sampling rate                            : 48.0 kHz
  137. Frame rate                               : 31.250 FPS (1536 SPF)
  138. Bit depth                                : 16 bits
  139. Compression mode                         : Lossy
  140. Stream size                              : 487 MiB (1%)
  141. Title                                    : Doctor.Sleep.2019.THEATRICAL.2160p.BluRay.REMUX.HEVC.DTS-HD.MA.TrueHD.7.1.Atmos-FGT
  142. Language                                 : English
  143. Service kind                             : Complete Main
  144. Default                                  : No
  145. Forced                                   : No

  146. Audio #5
  147. ID                                       : 7
  148. Format                                   : AC-3
  149. Format/Info                              : Audio Coding 3
  150. Commercial name                          : Dolby Digital
  151. Codec ID                                 : A_AC3
  152. Duration                                 : 2 h 32 min
  153. Bit rate mode                            : Constant
  154. Bit rate                                 : 448 kb/s
  155. Channel(s)                               : 6 channels
  156. Channel layout                           : L R C LFE Ls Rs
  157. Sampling rate                            : 48.0 kHz
  158. Frame rate                               : 31.250 FPS (1536 SPF)
  159. Bit depth                                : 16 bits
  160. Compression mode                         : Lossy
  161. Stream size                              : 487 MiB (1%)
  162. Title                                    : Doctor.Sleep.2019.THEATRICAL.2160p.BluRay.REMUX.HEVC.DTS-HD.MA.TrueHD.7.1.Atmos-FGT
  163. Language                                 : English
  164. Service kind                             : Complete Main
  165. Default                                  : No
  166. Forced                                   : No

  167. Audio #6
  168. ID                                       : 8
  169. Format                                   : AC-3
  170. Format/Info                              : Audio Coding 3
  171. Commercial name                          : Dolby Digital
  172. Codec ID                                 : A_AC3
  173. Duration                                 : 2 h 32 min
  174. Bit rate mode                            : Constant
  175. Bit rate                                 : 448 kb/s
  176. Channel(s)                               : 6 channels
  177. Channel layout                           : L R C LFE Ls Rs
  178. Sampling rate                            : 48.0 kHz
  179. Frame rate                               : 31.250 FPS (1536 SPF)
  180. Bit depth                                : 16 bits
  181. Compression mode                         : Lossy
  182. Stream size                              : 487 MiB (1%)
  183. Title                                    : Doctor.Sleep.2019.THEATRICAL.2160p.BluRay.REMUX.HEVC.DTS-HD.MA.TrueHD.7.1.Atmos-FGT
  184. Language                                 : English
  185. Service kind                             : Complete Main
  186. Default                                  : No
  187. Forced                                   : No

  188. Audio #7
  189. ID                                       : 9
  190. Format                                   : AC-3
  191. Format/Info                              : Audio Coding 3
  192. Commercial name                          : Dolby Digital
  193. Codec ID                                 : A_AC3
  194. Duration                                 : 2 h 32 min
  195. Bit rate mode                            : Constant
  196. Bit rate                                 : 448 kb/s
  197. Channel(s)                               : 6 channels
  198. Channel layout                           : L R C LFE Ls Rs
  199. Sampling rate                            : 48.0 kHz
  200. Frame rate                               : 31.250 FPS (1536 SPF)
  201. Bit depth                                : 16 bits
  202. Compression mode                         : Lossy
  203. Stream size                              : 487 MiB (1%)
  204. Title                                    : Doctor.Sleep.2019.THEATRICAL.2160p.BluRay.REMUX.HEVC.DTS-HD.MA.TrueHD.7.1.Atmos-FGT
  205. Language                                 : French
  206. Service kind                             : Complete Main
  207. Default                                  : No
  208. Forced                                   : No

  209. Audio #8
  210. ID                                       : 10
  211. Format                                   : AC-3
  212. Format/Info                              : Audio Coding 3
  213. Commercial name                          : Dolby Digital
  214. Codec ID                                 : A_AC3
  215. Duration                                 : 2 h 32 min
  216. Bit rate mode                            : Constant
  217. Bit rate                                 : 448 kb/s
  218. Channel(s)                               : 6 channels
  219. Channel layout                           : L R C LFE Ls Rs
  220. Sampling rate                            : 48.0 kHz
  221. Frame rate                               : 31.250 FPS (1536 SPF)
  222. Bit depth                                : 16 bits
  223. Compression mode                         : Lossy
  224. Stream size                              : 487 MiB (1%)
  225. Title                                    : Doctor.Sleep.2019.THEATRICAL.2160p.BluRay.REMUX.HEVC.DTS-HD.MA.TrueHD.7.1.Atmos-FGT
  226. Language                                 : Italian
  227. Service kind                             : Complete Main
  228. Default                                  : No
  229. Forced                                   : No

  230. Audio #9
  231. ID                                       : 11
  232. Format                                   : AC-3
  233. Format/Info                              : Audio Coding 3
  234. Commercial name                          : Dolby Digital
  235. Codec ID                                 : A_AC3
  236. Duration                                 : 2 h 32 min
  237. Bit rate mode                            : Constant
  238. Bit rate                                 : 448 kb/s
  239. Channel(s)                               : 6 channels
  240. Channel layout                           : L R C LFE Ls Rs
  241. Sampling rate                            : 48.0 kHz
  242. Frame rate                               : 31.250 FPS (1536 SPF)
  243. Bit depth                                : 16 bits
  244. Compression mode                         : Lossy
  245. Stream size                              : 487 MiB (1%)
  246. Title                                    : Doctor.Sleep.2019.THEATRICAL.2160p.BluRay.REMUX.HEVC.DTS-HD.MA.TrueHD.7.1.Atmos-FGT
  247. Language                                 : Spanish
  248. Service kind                             : Complete Main
  249. Default                                  : No
  250. Forced                                   : No

  251. Audio #10
  252. ID                                       : 12
  253. Format                                   : AC-3
  254. Format/Info                              : Audio Coding 3
  255. Commercial name                          : Dolby Digital
  256. Codec ID                                 : A_AC3
  257. Duration                                 : 2 h 32 min
  258. Bit rate mode                            : Constant
  259. Bit rate                                 : 448 kb/s
  260. Channel(s)                               : 6 channels
  261. Channel layout                           : L R C LFE Ls Rs
  262. Sampling rate                            : 48.0 kHz
  263. Frame rate                               : 31.250 FPS (1536 SPF)
  264. Bit depth                                : 16 bits
  265. Compression mode                         : Lossy
  266. Stream size                              : 487 MiB (1%)
  267. Title                                    : Doctor.Sleep.2019.THEATRICAL.2160p.BluRay.REMUX.HEVC.DTS-HD.MA.TrueHD.7.1.Atmos-FGT
  268. Language                                 : Russian
  269. Service kind                             : Complete Main
  270. Default                                  : No
  271. Forced                                   : No

  272. Text #1
  273. ID                                       : 13
  274. Format                                   : UTF-8
  275. Codec ID                                 : S_TEXT/UTF8
  276. Codec ID/Info                            : UTF-8 Plain Text
  277. Duration                                 : 2 h 27 min
  278. Bit rate                                 : 43 b/s
  279. Count of elements                        : 1931
  280. Stream size                              : 46.8 KiB (0%)
  281. Title                                    : English-SRT
  282. Language                                 : English
  283. Default                                  : Yes
  284. Forced                                   : No

  285. Text #2
  286. ID                                       : 14
  287. Format                                   : PGS
  288. Muxing mode                              : zlib
  289. Codec ID                                 : S_HDMV/PGS
  290. Codec ID/Info                            : Picture based subtitle format used on BDs/HD-DVDs
  291. Duration                                 : 2 h 27 min
  292. Bit rate                                 : 27.1 kb/s
  293. Count of elements                        : 3878
  294. Stream size                              : 28.5 MiB (0%)
  295. Title                                    : English-PGS
  296. Language                                 : English
  297. Default                                  : No
  298. Forced                                   : No

  299. Text #3
  300. ID                                       : 15
  301. Format                                   : PGS
  302. Muxing mode                              : zlib
  303. Codec ID                                 : S_HDMV/PGS
  304. Codec ID/Info                            : Picture based subtitle format used on BDs/HD-DVDs
  305. Duration                                 : 2 h 31 min
  306. Bit rate                                 : 19.2 kb/s
  307. Count of elements                        : 2918
  308. Stream size                              : 20.7 MiB (0%)
  309. Title                                    : French-PGS
  310. Language                                 : French
  311. Default                                  : No
  312. Forced                                   : No

  313. Text #4
  314. ID                                       : 16
  315. Format                                   : PGS
  316. Muxing mode                              : zlib
  317. Codec ID                                 : S_HDMV/PGS
  318. Codec ID/Info                            : Picture based subtitle format used on BDs/HD-DVDs
  319. Duration                                 : 2 h 27 min
  320. Bit rate                                 : 25.6 kb/s
  321. Count of elements                        : 3890
  322. Stream size                              : 27.0 MiB (0%)
  323. Title                                    : Italian-PGS
  324. Language                                 : Italian
  325. Default                                  : No
  326. Forced                                   : No

  327. Text #5
  328. ID                                       : 17
  329. Format                                   : PGS
  330. Muxing mode                              : zlib
  331. Codec ID                                 : S_HDMV/PGS
  332. Codec ID/Info                            : Picture based subtitle format used on BDs/HD-DVDs
  333. Duration                                 : 1 h 47 min
  334. Bit rate                                 : 495 b/s
  335. Count of elements                        : 48
  336. Stream size                              : 388 KiB (0%)
  337. Title                                    : Italian-FORCED-PGS
  338. Language                                 : Italian
  339. Default                                  : No
  340. Forced                                   : No

  341. Text #6
  342. ID                                       : 18
  343. Format                                   : PGS
  344. Muxing mode                              : zlib
  345. Codec ID                                 : S_HDMV/PGS
  346. Codec ID/Info                            : Picture based subtitle format used on BDs/HD-DVDs
  347. Duration                                 : 2 h 31 min
  348. Bit rate                                 : 24.0 kb/s
  349. Count of elements                        : 3320
  350. Stream size                              : 25.9 MiB (0%)
  351. Title                                    : Chinese-PGS
  352. Language                                 : Chinese
  353. Default                                  : No
  354. Forced                                   : No

  355. Text #7
  356. ID                                       : 19
  357. Format                                   : PGS
  358. Muxing mode                              : zlib
  359. Codec ID                                 : S_HDMV/PGS
  360. Codec ID/Info                            : Picture based subtitle format used on BDs/HD-DVDs
  361. Duration                                 : 2 h 25 min
  362. Bit rate                                 : 14.8 kb/s
  363. Count of elements                        : 3244
  364. Stream size                              : 15.3 MiB (0%)
  365. Title                                    : Korean-PGS
  366. Language                                 : Korean
  367. Default                                  : No
  368. Forced                                   : No

  369. Text #8
  370. ID                                       : 20
  371. Format                                   : PGS
  372. Muxing mode                              : zlib
  373. Codec ID                                 : S_HDMV/PGS
  374. Codec ID/Info                            : Picture based subtitle format used on BDs/HD-DVDs
  375. Duration                                 : 2 h 25 min
  376. Bit rate                                 : 24.7 kb/s
  377. Count of elements                        : 3250
  378. Stream size                              : 25.7 MiB (0%)
  379. Title                                    : Spanish-PGS
  380. Language                                 : Spanish
  381. Default                                  : No
  382. Forced                                   : No

  383. Text #9
  384. ID                                       : 21
  385. Format                                   : PGS
  386. Muxing mode                              : zlib
  387. Codec ID                                 : S_HDMV/PGS
  388. Codec ID/Info                            : Picture based subtitle format used on BDs/HD-DVDs
  389. Duration                                 : 1 h 37 min
  390. Bit rate                                 : 358 b/s
  391. Count of elements                        : 24
  392. Stream size                              : 256 KiB (0%)
  393. Title                                    : Spanish-FORCED-PGS
  394. Language                                 : Spanish
  395. Default                                  : No
  396. Forced                                   : No

  397. Text #10
  398. ID                                       : 22
  399. Format                                   : PGS
  400. Muxing mode                              : zlib
  401. Codec ID                                 : S_HDMV/PGS
  402. Codec ID/Info                            : Picture based subtitle format used on BDs/HD-DVDs
  403. Duration                                 : 2 h 31 min
  404. Bit rate                                 : 13.1 kb/s
  405. Count of elements                        : 3322
  406. Stream size                              : 14.2 MiB (0%)
  407. Title                                    : Arabic-PGS
  408. Language                                 : Arabic
  409. Default                                  : No
  410. Forced                                   : No

  411. Text #11
  412. ID                                       : 23
  413. Format                                   : PGS
  414. Muxing mode                              : zlib
  415. Codec ID                                 : S_HDMV/PGS
  416. Codec ID/Info                            : Picture based subtitle format used on BDs/HD-DVDs
  417. Duration                                 : 2 h 31 min
  418. Bit rate                                 : 20.4 kb/s
  419. Count of elements                        : 2376
  420. Stream size                              : 22.1 MiB (0%)
  421. Title                                    : Danish-PGS
  422. Language                                 : Danish
  423. Default                                  : No
  424. Forced                                   : No

  425. Text #12
  426. ID                                       : 24
  427. Format                                   : PGS
  428. Muxing mode                              : zlib
  429. Codec ID                                 : S_HDMV/PGS
  430. Codec ID/Info                            : Picture based subtitle format used on BDs/HD-DVDs
  431. Duration                                 : 2 h 31 min
  432. Bit rate                                 : 22.2 kb/s
  433. Count of elements                        : 3222
  434. Stream size                              : 24.0 MiB (0%)
  435. Title                                    : Finnish-PGS
  436. Language                                 : Finnish
  437. Default                                  : No
  438. Forced                                   : No

  439. Text #13
  440. ID                                       : 25
  441. Format                                   : PGS
  442. Muxing mode                              : zlib
  443. Codec ID                                 : S_HDMV/PGS
  444. Codec ID/Info                            : Picture based subtitle format used on BDs/HD-DVDs
  445. Duration                                 : 2 h 31 min
  446. Bit rate                                 : 22.8 kb/s
  447. Count of elements                        : 3286
  448. Stream size                              : 24.6 MiB (0%)
  449. Title                                    : Greek-PGS
  450. Language                                 : Greek
  451. Default                                  : No
  452. Forced                                   : No

  453. Text #14
  454. ID                                       : 26
  455. Format                                   : PGS
  456. Muxing mode                              : zlib
  457. Codec ID                                 : S_HDMV/PGS
  458. Codec ID/Info                            : Picture based subtitle format used on BDs/HD-DVDs
  459. Duration                                 : 2 h 31 min
  460. Bit rate                                 : 19.9 kb/s
  461. Count of elements                        : 2456
  462. Stream size                              : 21.5 MiB (0%)
  463. Title                                    : Norwegian-PGS
  464. Language                                 : Norwegian
  465. Default                                  : No
  466. Forced                                   : No

  467. Text #15
  468. ID                                       : 27
  469. Format                                   : PGS
  470. Muxing mode                              : zlib
  471. Codec ID                                 : S_HDMV/PGS
  472. Codec ID/Info                            : Picture based subtitle format used on BDs/HD-DVDs
  473. Duration                                 : 2 h 31 min
  474. Bit rate                                 : 21.7 kb/s
  475. Count of elements                        : 3262
  476. Stream size                              : 23.4 MiB (0%)
  477. Title                                    : Portuguese-PGS
  478. Language                                 : Portuguese
  479. Default                                  : No
  480. Forced                                   : No

  481. Text #16
  482. ID                                       : 28
  483. Format                                   : PGS
  484. Muxing mode                              : zlib
  485. Codec ID                                 : S_HDMV/PGS
  486. Codec ID/Info                            : Picture based subtitle format used on BDs/HD-DVDs
  487. Duration                                 : 2 h 31 min
  488. Bit rate                                 : 21.4 kb/s
  489. Count of elements                        : 3314
  490. Stream size                              : 23.1 MiB (0%)
  491. Title                                    : Russian-PGS
  492. Language                                 : Russian
  493. Default                                  : No
  494. Forced                                   : No

  495. Text #17
  496. ID                                       : 29
  497. Format                                   : PGS
  498. Muxing mode                              : zlib
  499. Codec ID                                 : S_HDMV/PGS
  500. Codec ID/Info                            : Picture based subtitle format used on BDs/HD-DVDs
  501. Duration                                 : 2 h 14 min
  502. Bit rate                                 : 684 b/s
  503. Count of elements                        : 84
  504. Stream size                              : 676 KiB (0%)
  505. Title                                    : Russian-FORCED-PGS
  506. Language                                 : Russian
  507. Default                                  : No
  508. Forced                                   : No

  509. Text #18
  510. ID                                       : 30
  511. Format                                   : PGS
  512. Muxing mode                              : zlib
  513. Codec ID                                 : S_HDMV/PGS
  514. Codec ID/Info                            : Picture based subtitle format used on BDs/HD-DVDs
  515. Duration                                 : 2 h 31 min
  516. Bit rate                                 : 21.7 kb/s
  517. Count of elements                        : 3190
  518. Stream size                              : 23.4 MiB (0%)
  519. Title                                    : Swedish-PGS
  520. Language                                 : Swedish
  521. Default                                  : No
  522. Forced                                   : No

  523. Text #19
  524. ID                                       : 31
  525. Format                                   : PGS
  526. Muxing mode                              : zlib
  527. Codec ID                                 : S_HDMV/PGS
  528. Codec ID/Info                            : Picture based subtitle format used on BDs/HD-DVDs
  529. Duration                                 : 2 h 5 min
  530. Bit rate                                 : 284 b/s
  531. Count of elements                        : 36
  532. Stream size                              : 261 KiB (0%)
  533. Title                                    : French-FORCED-PGS
  534. Language                                 : French
  535. Default                                  : No
  536. Forced                                   : No

  537. Menu
  538. 00:00:00.000                             : en:Chapter 01
  539. 00:10:36.260                             : en:Chapter 02
  540. 00:19:44.349                             : en:Chapter 03
  541. 00:29:23.011                             : en:Chapter 04
  542. 00:39:51.555                             : en:Chapter 05
  543. 00:49:47.317                             : en:Chapter 06
  544. 00:58:24.584                             : en:Chapter 07
  545. 01:06:00.414                             : en:Chapter 08
  546. 01:11:00.756                             : en:Chapter 09
  547. 01:20:35.413                             : en:Chapter 10
  548. 01:27:07.013                             : en:Chapter 11
  549. 01:35:13.457                             : en:Chapter 12
  550. 01:44:01.902                             : en:Chapter 13
  551. 01:52:52.474                             : en:Chapter 14
  552. 02:01:22.733                             : en:Chapter 15
  553. 02:08:01.507                             : en:Chapter 16
  554. 02:17:27.155                             : en:Chapter 17
  555. 02:23:06.536                             : en:Chapter 18
  556. 02:26:22.064                             : en:Chapter 19
复制代码

睡梦医生 Doctor.Sleep.2019.THEATRICAL.2160p.BluRay.REMUX.HEVC.DTS-HD.MA.TrueHD.7.1.Atmos-FGT 80.53GB-2.png 睡梦医生 Doctor.Sleep.2019.THEATRICAL.2160p.BluRay.REMUX.HEVC.DTS-HD.MA.TrueHD.7.1.Atmos-FGT 80.53GB-3.png 睡梦医生 Doctor.Sleep.2019.THEATRICAL.2160p.BluRay.REMUX.HEVC.DTS-HD.MA.TrueHD.7.1.Atmos-FGT 80.53GB-4.png






回复

使用道具 举报

蓝光币
758
发表于 2020-1-30 12:31:01 | 显示全部楼层
谢谢楼主无私分享。
回复 支持 反对

使用道具 举报

懒得打字嘛,点击右侧快捷回复 【右侧内容,后台自定义】
您需要登录后才可以回帖 登录 | 立即加入

本版积分规则

Archiver|小黑屋| 蓝光电影网 |网站地图

Copyright © 2021 Comsenz Inc. Powered by 蓝光电影网

蓝光电影网

本站内容由用户自主分享和转载自互联网,转载目的在于传递更多信息,并不代表本网赞同其观点和对其真实性负责。

如有侵权、违反国家法律政策行为,请联系我们,我们会第一时间及时清除和处理!

举报反馈邮箱:[email protected]

快速回复 返回顶部 返回列表