找回密码

蓝光电影网

查看: 1744|回复: 4

[8bit.SDR] 睡梦医生 Doctor.Sleep.2019.THEATRICAL.2160p.BluRay.x264.8bit.SDR.DTS-HD.MA.TrueHD.7.1.Atmos-SWTYBLZ 47.84GB

[复制链接]
蓝光币
1022
发表于 2020-1-29 18:45:45 | 显示全部楼层 |阅读模式
睡梦医生 Doctor.Sleep.2019.THEATRICAL.2160p.BluRay.x264.8bit.SDR.DTS-HD.MA.TrueHD.7.1.Atmos-SWTYBLZ 47.84GB-1.png

译  名 睡梦医生 / Dr. Sleep / 《闪灵》续集 / 安息医生(台) / 就寝医师 / 就寝医生 / 长逝医生
片  名 Doctor Sleep
年  代 2019
产  地 美国 / 英国
类  别 剧情 / 惊悚 / 可骇 / 奇异
语  言 英语
上映日期 2019-10-30(法国) / 2019-10-31(英国) / 2019-11-08(美国)
IMDb评分  7.5/10 from 56337 users
IMDb链接  https://www.imdb.com/title/tt5606664
豆瓣评分 6.8/10 from 9257 users
豆瓣链接 https://movie.douban.com/subject/25932065/
片  长 151分钟
导  演 迈克·弗拉纳根 Mike Flanagan
编  剧 斯蒂芬·金 Stephen King / 迈克·弗拉纳根 Mike Flanagan
主  演 伊万·麦克格雷格 Ewan McGregor
       丽贝卡·弗格森 Rebecca Ferguson
       凯丽·卡伦 Kyliegh Curran
       雅各布·特伦布莱 Jacob Tremblay
       卡雷尔·斯特鲁基 Carel Struycken
       丹尼·劳埃德 Danny Lloyd
       艾米丽·阿琳·林德 Emily Alyn Lind
       克利夫·柯蒂斯 Cliff Curtis
       扎恩·迈克拉农 Zahn McClarnon
       切尔西·塔尔玛琪 Chelsea Talmadge
       艾丽克斯·埃索 Alex Essoe
       布鲁斯·格林伍德 Bruce Greenwood
       乔赛琳·唐娜休 Jocelin Donahue
       卡尔·卢波利 Carl Lumbly
       维奥莱特·麦格劳 Violet McGraw
       凯瑟琳·帕克 Catherine Parker
       罗伯特·朗斯特里特 Robert Longstreet
       赛琳娜·安杜兹 Selena Anduze
       尼古拉斯·普罗约尔 Nicholas Pryor
       贝瑟妮·安妮·林德 Bethany Anne Lind
       查尔斯·格林 Charles Green
       扎克瑞·莫莫 Zackary Momoh
       杰森·戴维斯 Jason Davis
       胡安·贾斯帕 Juan Gaspard
       路易斯·桑切斯 Luis Sanchez


标  签 可骇 | 惊悚 | 闪灵续集 | 美国 | 灵异 | 2019 | 小说改编 | 奇异

简  介  

  《闪灵》续集《就寝医师》(Doctor Sleep)北美定档2020年1月24日,仍然按照斯蒂芬·金的同名小说改编,迈克·弗拉纳甘(《杰罗德游戏》《灭亡占卜2》《梦醒之前》)执导。本片聚焦闪灵里的儿子Danny Torrance,履历了Overlook Hotel里可怕的童年时光后,他已经流浪了几十年,渴望摆脱父亲的失望、酒精、暴力等特质,终极假寓在新罕布什尔州的一个小镇上,这是一个支持他的AA制社区,他在一野生老院找到工作,在那边他残余的“闪灵”之力为病笃之人供给了相当重要的终极抚慰。在一只要预知才能的猫的帮助下,他成为了“就寝医师”。2001年女婴Abra Stone诞生,她逐步起头展现超自然之力,似乎猜测到了911事务。她缓慢而无意地与Danny建立起心灵感应的纽带,随着她的长大,气力也比Danny的加倍强大,Danny被重新激起他心中的恶魔,并呼唤他为Abra的灵魂和保存战役。
  弗拉纳甘重写剧本,此前由Akiva Goldsman改编。
  1. Video
  2. ID                                       : 1
  3. Format                                   : AVC
  4. Format/Info                              : Advanced Video Codec
  5. Format profile                           : [email protected]
  6. Format settings                          : CABAC / 5 Ref Frames
  7. Format settings, CABAC                   : Yes
  8. Format settings, Reference frames        : 5 frames
  9. Codec ID                                 : V_MPEG4/ISO/AVC
  10. Duration                                 : 2 h 32 min
  11. Bit rate                                 : 36.1 Mb/s
  12. Width                                    : 3 840 pixels
  13. Height                                   : 2 076 pixels
  14. Display aspect ratio                     : 1.85:1
  15. Frame rate mode                          : Constant
  16. Frame rate                               : 23.976 (24000/1001) FPS
  17. Color space                              : YUV
  18. Chroma subsampling                       : 4:2:0
  19. Bit depth                                : 8 bits
  20. Scan type                                : Progressive
  21. Bits/(Pixel*Frame)                       : 0.189
  22. Stream size                              : 38.3 GiB (80%)
  23. Title                                    : Doctor.Sleep.2019.THEATRICAL.2160p.BluRay.x264.8bit.SDR.DTS-HD.MA.TrueHD.7.1.Atmos-SWTYBLZ
  24. Writing library                          : x264 core 157 r2935 545de2f
  25. Encoding settings                        : cabac=1 / ref=5 / deblock=1:-1:-1 / analyse=0x3:0x113 / me=umh / subme=10 / psy=1 / psy_rd=1.00:0.15 / mixed_ref=1 / me_range=48 / chroma_me=1 / trellis=2 / 8x8dct=1 / cqm=0 / deadzone=21,11 / fast_pskip=1 / chroma_qp_offset=-3 / threads=36 / lookahead_threads=3 / sliced_threads=0 / nr=0 / decimate=0 / interlaced=0 / bluray_compat=0 / constrained_intra=0 / bframes=3 / b_pyramid=2 / b_adapt=2 / b_bias=0 / direct=3 / weightb=1 / open_gop=0 / weightp=2 / keyint=250 / keyint_min=23 / scenecut=40 / intra_refresh=0 / rc_lookahead=50 / rc=crf / mbtree=1 / crf=18.0 / qcomp=0.60 / qpmin=0 / qpmax=69 / qpstep=4 / ip_ratio=1.40 / aq=1:1.00
  26. Default                                  : Yes
  27. Forced                                   : No

  28. Audio #1
  29. ID                                       : 2
  30. Format                                   : MLP FBA 16-ch
  31. Format/Info                              : Meridian Lossless Packing FBA with 16-channel presentation
  32. Commercial name                          : Dolby TrueHD with Dolby Atmos
  33. Codec ID                                 : A_TRUEHD
  34. Duration                                 : 2 h 32 min
  35. Bit rate mode                            : Variable
  36. Bit rate                                 : 3 939 kb/s
  37. Maximum bit rate                         : 7 347 kb/s
  38. Channel(s)                               : 8 channels
  39. Channel layout                           : L R C LFE Ls Rs Lb Rb
  40. Sampling rate                            : 48.0 kHz
  41. Frame rate                               : 1 200.000 FPS (40 SPF)
  42. Compression mode                         : Lossless
  43. Stream size                              : 4.18 GiB (9%)
  44. Title                                    : Doctor.Sleep.2019.THEATRICAL.2160p.BluRay.x264.8bit.SDR.DTS-HD.MA.TrueHD.7.1.Atmos-SWTYBLZ
  45. Language                                 : English
  46. Default                                  : Yes
  47. Forced                                   : No
  48. Number of dynamic objects                : 15
  49. Bed channel count                        : 1 channel
  50. Bed channel configuration                : LFE

  51. Audio #2
  52. ID                                       : 3
  53. Format                                   : DTS XLL
  54. Format/Info                              : Digital Theater Systems
  55. Commercial name                          : DTS-HD Master Audio
  56. Codec ID                                 : A_DTS
  57. Duration                                 : 2 h 32 min
  58. Bit rate mode                            : Variable
  59. Bit rate                                 : 4 101 kb/s
  60. Channel(s)                               : 8 channels
  61. Channel layout                           : C L R LFE Lb Rb Lss Rss
  62. Sampling rate                            : 48.0 kHz
  63. Frame rate                               : 93.750 FPS (512 SPF)
  64. Bit depth                                : 24 bits
  65. Compression mode                         : Lossless
  66. Stream size                              : 4.35 GiB (9%)
  67. Title                                    : Doctor.Sleep.2019.THEATRICAL.2160p.BluRay.x264.8bit.SDR.DTS-HD.MA.TrueHD.7.1.Atmos-SWTYBLZ
  68. Language                                 : English
  69. Default                                  : No
  70. Forced                                   : No

  71. Audio #3
  72. ID                                       : 4
  73. Format                                   : AC-3
  74. Format/Info                              : Audio Coding 3
  75. Commercial name                          : Dolby Digital
  76. Codec ID                                 : A_AC3
  77. Duration                                 : 2 h 32 min
  78. Bit rate mode                            : Constant
  79. Bit rate                                 : 640 kb/s
  80. Channel(s)                               : 6 channels
  81. Channel layout                           : L R C LFE Ls Rs
  82. Sampling rate                            : 48.0 kHz
  83. Frame rate                               : 31.250 FPS (1536 SPF)
  84. Compression mode                         : Lossy
  85. Stream size                              : 696 MiB (1%)
  86. Title                                    : Doctor.Sleep.2019.THEATRICAL.2160p.BluRay.x264.8bit.SDR.DTS-HD.MA.TrueHD.7.1.Atmos-SWTYBLZ
  87. Language                                 : English
  88. Service kind                             : Complete Main
  89. Default                                  : No
  90. Forced                                   : No

  91. Text #1
  92. ID                                       : 5
  93. Format                                   : UTF-8
  94. Codec ID                                 : S_TEXT/UTF8
  95. Codec ID/Info                            : UTF-8 Plain Text
  96. Duration                                 : 2 h 27 min
  97. Bit rate                                 : 43 b/s
  98. Count of elements                        : 1931
  99. Stream size                              : 46.8 KiB (0%)
  100. Title                                    : English-SRT
  101. Language                                 : English
  102. Default                                  : Yes
  103. Forced                                   : No

  104. Text #2
  105. ID                                       : 6
  106. Format                                   : PGS
  107. Muxing mode                              : zlib
  108. Codec ID                                 : S_HDMV/PGS
  109. Codec ID/Info                            : Picture based subtitle format used on BDs/HD-DVDs
  110. Duration                                 : 2 h 27 min
  111. Bit rate                                 : 27.1 kb/s
  112. Count of elements                        : 3878
  113. Stream size                              : 28.5 MiB (0%)
  114. Title                                    : English-PGS
  115. Language                                 : English
  116. Default                                  : No
  117. Forced                                   : No

  118. Text #3
  119. ID                                       : 7
  120. Format                                   : PGS
  121. Muxing mode                              : zlib
  122. Codec ID                                 : S_HDMV/PGS
  123. Codec ID/Info                            : Picture based subtitle format used on BDs/HD-DVDs
  124. Duration                                 : 2 h 31 min
  125. Bit rate                                 : 13.1 kb/s
  126. Count of elements                        : 3322
  127. Stream size                              : 14.2 MiB (0%)
  128. Title                                    : Arabic-PGS
  129. Language                                 : Arabic
  130. Default                                  : No
  131. Forced                                   : No

  132. Text #4
  133. ID                                       : 8
  134. Format                                   : PGS
  135. Muxing mode                              : zlib
  136. Codec ID                                 : S_HDMV/PGS
  137. Codec ID/Info                            : Picture based subtitle format used on BDs/HD-DVDs
  138. Duration                                 : 2 h 31 min
  139. Bit rate                                 : 24.0 kb/s
  140. Count of elements                        : 3320
  141. Stream size                              : 25.9 MiB (0%)
  142. Title                                    : Chinese-PGS
  143. Language                                 : Chinese
  144. Default                                  : No
  145. Forced                                   : No

  146. Text #5
  147. ID                                       : 9
  148. Format                                   : PGS
  149. Muxing mode                              : zlib
  150. Codec ID                                 : S_HDMV/PGS
  151. Codec ID/Info                            : Picture based subtitle format used on BDs/HD-DVDs
  152. Duration                                 : 2 h 31 min
  153. Bit rate                                 : 20.4 kb/s
  154. Count of elements                        : 2376
  155. Stream size                              : 22.1 MiB (0%)
  156. Title                                    : Danish-PGS
  157. Language                                 : Danish
  158. Default                                  : No
  159. Forced                                   : No

  160. Text #6
  161. ID                                       : 10
  162. Format                                   : PGS
  163. Muxing mode                              : zlib
  164. Codec ID                                 : S_HDMV/PGS
  165. Codec ID/Info                            : Picture based subtitle format used on BDs/HD-DVDs
  166. Duration                                 : 2 h 31 min
  167. Bit rate                                 : 22.2 kb/s
  168. Count of elements                        : 3222
  169. Stream size                              : 24.0 MiB (0%)
  170. Title                                    : Finnish-PGS
  171. Language                                 : Finnish
  172. Default                                  : No
  173. Forced                                   : No

  174. Text #7
  175. ID                                       : 11
  176. Format                                   : PGS
  177. Muxing mode                              : zlib
  178. Codec ID                                 : S_HDMV/PGS
  179. Codec ID/Info                            : Picture based subtitle format used on BDs/HD-DVDs
  180. Duration                                 : 2 h 31 min
  181. Bit rate                                 : 19.2 kb/s
  182. Count of elements                        : 2918
  183. Stream size                              : 20.7 MiB (0%)
  184. Title                                    : French-PGS
  185. Language                                 : French
  186. Default                                  : No
  187. Forced                                   : No

  188. Text #8
  189. ID                                       : 12
  190. Format                                   : PGS
  191. Muxing mode                              : zlib
  192. Codec ID                                 : S_HDMV/PGS
  193. Codec ID/Info                            : Picture based subtitle format used on BDs/HD-DVDs
  194. Duration                                 : 2 h 31 min
  195. Bit rate                                 : 22.8 kb/s
  196. Count of elements                        : 3286
  197. Stream size                              : 24.6 MiB (0%)
  198. Title                                    : Greek-PGS
  199. Language                                 : Greek
  200. Default                                  : No
  201. Forced                                   : No

  202. Text #9
  203. ID                                       : 13
  204. Format                                   : PGS
  205. Muxing mode                              : zlib
  206. Codec ID                                 : S_HDMV/PGS
  207. Codec ID/Info                            : Picture based subtitle format used on BDs/HD-DVDs
  208. Duration                                 : 2 h 27 min
  209. Bit rate                                 : 25.6 kb/s
  210. Count of elements                        : 3890
  211. Stream size                              : 27.0 MiB (0%)
  212. Title                                    : Italian-PGS
  213. Language                                 : Italian
  214. Default                                  : No
  215. Forced                                   : No

  216. Text #10
  217. ID                                       : 14
  218. Format                                   : PGS
  219. Muxing mode                              : zlib
  220. Codec ID                                 : S_HDMV/PGS
  221. Codec ID/Info                            : Picture based subtitle format used on BDs/HD-DVDs
  222. Duration                                 : 2 h 25 min
  223. Bit rate                                 : 14.8 kb/s
  224. Count of elements                        : 3244
  225. Stream size                              : 15.3 MiB (0%)
  226. Title                                    : Korean-PGS
  227. Language                                 : Korean
  228. Default                                  : No
  229. Forced                                   : No

  230. Text #11
  231. ID                                       : 15
  232. Format                                   : PGS
  233. Muxing mode                              : zlib
  234. Codec ID                                 : S_HDMV/PGS
  235. Codec ID/Info                            : Picture based subtitle format used on BDs/HD-DVDs
  236. Duration                                 : 2 h 31 min
  237. Bit rate                                 : 19.9 kb/s
  238. Count of elements                        : 2456
  239. Stream size                              : 21.5 MiB (0%)
  240. Title                                    : Norwegian-PGS
  241. Language                                 : Norwegian
  242. Default                                  : No
  243. Forced                                   : No

  244. Text #12
  245. ID                                       : 16
  246. Format                                   : PGS
  247. Muxing mode                              : zlib
  248. Codec ID                                 : S_HDMV/PGS
  249. Codec ID/Info                            : Picture based subtitle format used on BDs/HD-DVDs
  250. Duration                                 : 2 h 31 min
  251. Bit rate                                 : 21.7 kb/s
  252. Count of elements                        : 3262
  253. Stream size                              : 23.4 MiB (0%)
  254. Title                                    : Portuguese-PGS
  255. Language                                 : Portuguese
  256. Default                                  : No
  257. Forced                                   : No

  258. Text #13
  259. ID                                       : 17
  260. Format                                   : PGS
  261. Muxing mode                              : zlib
  262. Codec ID                                 : S_HDMV/PGS
  263. Codec ID/Info                            : Picture based subtitle format used on BDs/HD-DVDs
  264. Duration                                 : 2 h 31 min
  265. Bit rate                                 : 21.4 kb/s
  266. Count of elements                        : 3314
  267. Stream size                              : 23.1 MiB (0%)
  268. Title                                    : Russian-PGS
  269. Language                                 : Russian
  270. Default                                  : No
  271. Forced                                   : No

  272. Text #14
  273. ID                                       : 18
  274. Format                                   : PGS
  275. Muxing mode                              : zlib
  276. Codec ID                                 : S_HDMV/PGS
  277. Codec ID/Info                            : Picture based subtitle format used on BDs/HD-DVDs
  278. Duration                                 : 2 h 25 min
  279. Bit rate                                 : 24.7 kb/s
  280. Count of elements                        : 3250
  281. Stream size                              : 25.7 MiB (0%)
  282. Title                                    : Spanish-PGS
  283. Language                                 : Spanish
  284. Default                                  : No
  285. Forced                                   : No

  286. Text #15
  287. ID                                       : 19
  288. Format                                   : PGS
  289. Muxing mode                              : zlib
  290. Codec ID                                 : S_HDMV/PGS
  291. Codec ID/Info                            : Picture based subtitle format used on BDs/HD-DVDs
  292. Duration                                 : 2 h 31 min
  293. Bit rate                                 : 21.7 kb/s
  294. Count of elements                        : 3190
  295. Stream size                              : 23.4 MiB (0%)
  296. Title                                    : Swedish-PGS
  297. Language                                 : Swedish
  298. Default                                  : No
  299. Forced                                   : No

  300. Menu
  301. 00:00:00.000                             : en:Chapter 01
  302. 00:10:36.302                             : en:Chapter 02
  303. 00:19:44.350                             : en:Chapter 03
  304. 00:29:23.345                             : en:Chapter 04
  305. 00:39:51.931                             : en:Chapter 05
  306. 00:49:47.318                             : en:Chapter 06
  307. 00:58:24.710                             : en:Chapter 07
  308. 01:06:00.748                             : en:Chapter 08
  309. 01:11:00.756                             : en:Chapter 09
  310. 01:20:35.497                             : en:Chapter 10
  311. 01:27:07.013                             : en:Chapter 11
  312. 01:35:13.458                             : en:Chapter 12
  313. 01:44:01.902                             : en:Chapter 13
  314. 01:52:52.724                             : en:Chapter 14
  315. 02:01:22.734                             : en:Chapter 15
  316. 02:08:01.507                             : en:Chapter 16
  317. 02:17:27.156                             : en:Chapter 17
  318. 02:23:06.703                             : en:Chapter 18
  319. 02:26:22.107                             : en:Chapter 19
复制代码

睡梦医生 Doctor.Sleep.2019.THEATRICAL.2160p.BluRay.x264.8bit.SDR.DTS-HD.MA.TrueHD.7.1.Atmos-SWTYBLZ 47.84GB-2.png 睡梦医生 Doctor.Sleep.2019.THEATRICAL.2160p.BluRay.x264.8bit.SDR.DTS-HD.MA.TrueHD.7.1.Atmos-SWTYBLZ 47.84GB-3.png 睡梦医生 Doctor.Sleep.2019.THEATRICAL.2160p.BluRay.x264.8bit.SDR.DTS-HD.MA.TrueHD.7.1.Atmos-SWTYBLZ 47.84GB-4.png 睡梦医生 Doctor.Sleep.2019.THEATRICAL.2160p.BluRay.x264.8bit.SDR.DTS-HD.MA.TrueHD.7.1.Atmos-SWTYBLZ 47.84GB-5.png 睡梦医生 Doctor.Sleep.2019.THEATRICAL.2160p.BluRay.x264.8bit.SDR.DTS-HD.MA.TrueHD.7.1.Atmos-SWTYBLZ 47.84GB-6.png 睡梦医生 Doctor.Sleep.2019.THEATRICAL.2160p.BluRay.x264.8bit.SDR.DTS-HD.MA.TrueHD.7.1.Atmos-SWTYBLZ 47.84GB-7.png 睡梦医生 Doctor.Sleep.2019.THEATRICAL.2160p.BluRay.x264.8bit.SDR.DTS-HD.MA.TrueHD.7.1.Atmos-SWTYBLZ 47.84GB-8.png






回复

使用道具 举报

蓝光币
1306
发表于 2020-1-29 22:47:20 | 显示全部楼层
楼主发贴辛苦了,谢谢楼主分享!我觉得蓝光电影网是注册对了!
回复 支持 反对

使用道具 举报

蓝光币
888
发表于 2020-1-30 22:30:56 | 显示全部楼层
楼主发贴辛苦了,谢谢楼主分享!我觉得蓝光电影网是注册对了!
回复 支持 反对

使用道具 举报

蓝光币
642
发表于 2020-1-31 04:10:43 | 显示全部楼层

感谢楼主的无私分享!要想蓝光电影网好 就靠你我他
回复 支持 反对

使用道具 举报

蓝光币
1181
发表于 2020-2-1 00:06:39 | 显示全部楼层
感谢分享,乐于下载!
回复 支持 反对

使用道具 举报

懒得打字嘛,点击右侧快捷回复 【右侧内容,后台自定义】
您需要登录后才可以回帖 登录 | 立即加入

本版积分规则

Archiver|小黑屋| 蓝光电影网 |网站地图

Copyright © 2021 Comsenz Inc. Powered by 蓝光电影网

蓝光电影网

本站内容由用户自主分享和转载自互联网,转载目的在于传递更多信息,并不代表本网赞同其观点和对其真实性负责。

如有侵权、违反国家法律政策行为,请联系我们,我们会第一时间及时清除和处理!

举报反馈邮箱:[email protected]

快速回复 返回顶部 返回列表