找回密码

蓝光电影网

查看: 1814|回复: 4

[动作] 格兰德岛 Grand.Isle.2019.1080p.BluRay.x264-ROVERS 7.65GB

[复制链接]
蓝光币
1022
发表于 2020-1-29 20:16:28 | 显示全部楼层 |阅读模式
格兰德岛 Grand.Isle.2019.1080p.BluRay.x264-ROVERS 7.65GB-1.png

译  名 格兰德岛
片  名 Grand Isle
年  代 2019
产  地 美国
类  别 行动 / 惊悚
语  言 英语
上映日期 2019-12-06(美国)
IMDb评分  4.6/10 from 790 users
IMDb链接  https://www.imdb.com/title/tt8380776
豆瓣评分 4.4/10 from 134 users
豆瓣链接 https://movie.douban.com/subject/30308410/
片  长 97分钟
导  演 斯蒂芬·S·坎帕内利 Stephen S. Campanelli
编  剧 里奇·罗纳特 Rich Ronat / Iver William Jallah
主  演 尼古拉斯·凯奇 Nicolas Cage
       凯尔希·格兰莫 Kelsey Grammer
       祖蕾·亨奥 Zulay Henao
       卢克·本沃德 Luke Benward
       卡迪·斯特瑞兰德 KaDee Strickland
       艾米丽·玛丽·帕尔默 Emily Marie Palmer
       奥利弗·特雷韦纳 Oliver Trevena
       比阿特丽丝·埃尔南德斯 Beatrice Hernandez
       Isabella Grace Roark
       Haley Milsap


标  签 尼古拉斯·凯奇 | 美国 | 犯罪 | 2019 | 惊悚 | 美国电影 | 电影 | 性奴,反转

简  介  

  一位年轻父亲遭人诬陷为谋杀案罪犯,为了证实自己的明净,他必必要在自己履历过的一系列可骇而古怪的事务中寻觅线索和答案。
  本片由已经执导过《绝命偷盗》并屡次与克林特·伊斯特伍德合作的导演Stephen S. Campanelli和新晋导演Iver William Jallah结合执导,尼古拉斯·凯奇公布加盟该片。
  1. Video
  2. ID                                       : 1
  3. Format                                   : AVC
  4. Format/Info                              : Advanced Video Codec
  5. Format profile                           : [email protected]
  6. Format settings                          : CABAC / 4 Ref Frames
  7. Format settings, CABAC                   : Yes
  8. Format settings, Reference frames        : 4 frames
  9. Codec ID                                 : V_MPEG4/ISO/AVC
  10. Duration                                 : 1 h 37 min
  11. Bit rate                                 : 9 750 kb/s
  12. Width                                    : 1 920 pixels
  13. Height                                   : 872 pixels
  14. Display aspect ratio                     : 2.2:1
  15. Frame rate mode                          : Constant
  16. Frame rate                               : 23.976 (24000/1001) FPS
  17. Color space                              : YUV
  18. Chroma subsampling                       : 4:2:0
  19. Bit depth                                : 8 bits
  20. Scan type                                : Progressive
  21. Bits/(Pixel*Frame)                       : 0.243
  22. Stream size                              : 6.62 GiB (87%)
  23. Writing library                          : x264 core 159 r2991 1771b55
  24. Encoding settings                        : cabac=1 / ref=4 / deblock=1:-3:-3 / analyse=0x3:0x113 / me=umh / subme=8 / psy=1 / psy_rd=1.00:0.00 / mixed_ref=1 / me_range=16 / chroma_me=1 / trellis=1 / 8x8dct=1 / cqm=0 / deadzone=21,11 / fast_pskip=1 / chroma_qp_offset=-2 / threads=27 / lookahead_threads=4 / sliced_threads=0 / nr=0 / decimate=1 / interlaced=0 / bluray_compat=0 / constrained_intra=0 / bframes=3 / b_pyramid=2 / b_adapt=1 / b_bias=0 / direct=3 / weightb=1 / open_gop=0 / weightp=2 / keyint=250 / keyint_min=23 / scenecut=40 / intra_refresh=0 / rc_lookahead=50 / rc=2pass / mbtree=1 / bitrate=9750 / ratetol=1.0 / qcomp=0.60 / qpmin=0 / qpmax=69 / qpstep=4 / cplxblur=20.0 / qblur=0.5 / ip_ratio=1.40 / aq=1:1.00
  25. Language                                 : English
  26. Default                                  : Yes
  27. Forced                                   : No

  28. Audio
  29. ID                                       : 2
  30. Format                                   : DTS
  31. Format/Info                              : Digital Theater Systems
  32. Codec ID                                 : A_DTS
  33. Duration                                 : 1 h 37 min
  34. Bit rate mode                            : Constant
  35. Bit rate                                 : 1 509 kb/s
  36. Channel(s)                               : 6 channels
  37. Channel layout                           : C L R Ls Rs LFE
  38. Sampling rate                            : 48.0 kHz
  39. Frame rate                               : 93.750 FPS (512 SPF)
  40. Bit depth                                : 24 bits
  41. Compression mode                         : Lossy
  42. Stream size                              : 1.03 GiB (13%)
  43. Language                                 : English
  44. Default                                  : Yes
  45. Forced                                   : No

  46. Menu
  47. 00:00:00.000                             : en:00:00:00.000
  48. 00:06:06.241                             : en:00:06:06.241
  49. 00:15:55.163                             : en:00:15:55.163
  50. 00:23:30.284                             : en:00:23:30.284
  51. 00:32:34.077                             : en:00:32:34.077
  52. 00:40:36.726                             : en:00:40:36.726
  53. 00:51:06.063                             : en:00:51:06.063
  54. 00:56:13.203                             : en:00:56:13.203
  55. 01:03:28.430                             : en:01:03:28.430
  56. 01:13:52.595                             : en:01:13:52.595
  57. 01:23:06.398                             : en:01:23:06.398
  58. 01:34:26.953                             : en:01:34:26.953
复制代码

格兰德岛 Grand.Isle.2019.1080p.BluRay.x264-ROVERS 7.65GB-2.png






回复

使用道具 举报

蓝光币
621
发表于 2020-1-30 10:53:08 | 显示全部楼层

感谢楼主的无私分享!要想蓝光电影网好 就靠你我他
回复 支持 反对

使用道具 举报

蓝光币
758
发表于 2020-1-30 15:55:33 | 显示全部楼层
谢谢楼主无私分享。
回复 支持 反对

使用道具 举报

蓝光币
1644
发表于 2020-1-30 16:42:04 | 显示全部楼层

楼主太厉害了!楼主,电影应该很好看我觉得蓝光电影网真是个好地方!
回复 支持 反对

使用道具 举报

蓝光币
756
发表于 2020-7-28 23:36:29 | 显示全部楼层
thks for share!
回复 支持 反对

使用道具 举报

懒得打字嘛,点击右侧快捷回复 【右侧内容,后台自定义】
您需要登录后才可以回帖 登录 | 立即加入

本版积分规则

Archiver|小黑屋| 蓝光电影网 |网站地图

Copyright © 2021 Comsenz Inc. Powered by 蓝光电影网

蓝光电影网

本站内容由用户自主分享和转载自互联网,转载目的在于传递更多信息,并不代表本网赞同其观点和对其真实性负责。

如有侵权、违反国家法律政策行为,请联系我们,我们会第一时间及时清除和处理!

举报反馈邮箱:[email protected]

快速回复 返回顶部 返回列表