找回密码

蓝光电影网

查看: 696|回复: 3

[科幻] 星球大对决/决战星球 Battle.Star.Wars.2020.1080p.WEB-DL.DD5.1.H264-FGT 2.96GB

[复制链接]
蓝光币
1020
发表于 2020-1-29 20:23:37 | 显示全部楼层 |阅读模式
星球大对决/决战星球 Battle.Star.Wars.2020.1080p.WEB-DL.DD5.1.H264-FGT 2.96GB-1.png

译  名 星球大对决 / 决战星球 / 星球大战 / 星球大战之突起
片  名 Battle star Wars
年  代 2020
产  地 美国
类  别 行动 / 科幻 / 战争 / 冒险
语  言 英语
上映日期 2020-01-28(美国)
IMDb链接  https://www.imdb.com/title/tt11518196
豆瓣评分 0/10 from 0 users
豆瓣链接 https://movie.douban.com/subject/34926313/
片  长 86分钟
导  演 James Thomas
编  剧 Jeremy M. Inman
主  演 Aimee Stolte
       Alissa Filoramo
       Kate Watson
       Canyon Prince
       贾斯汀·波尔蒂 Justin Berti
       Ross Forte
       Alyson Gorske
       Benedikt Sebastian
       Luke Fattorusso


简  介  

  当邪恶同盟的带领人威胁要摧毁一个叛军星球以获得其资本时,他的女儿别无挑选,只能加入叛军一方,为正义而战。
  1. Video
  2. ID                                       : 1
  3. Format                                   : AVC
  4. Format/Info                              : Advanced Video Codec
  5. Format profile                           : [email protected]
  6. Format settings                          : CABAC / 5 Ref Frames
  7. Format settings, CABAC                   : Yes
  8. Format settings, Reference frames        : 5 frames
  9. Codec ID                                 : V_MPEG4/ISO/AVC
  10. Duration                                 : 1 h 26 min
  11. Bit rate                                 : 4 528 kb/s
  12. Width                                    : 1 916 pixels
  13. Height                                   : 800 pixels
  14. Display aspect ratio                     : 2.40:1
  15. Frame rate mode                          : Constant
  16. Frame rate                               : 23.976 FPS
  17. Color space                              : YUV
  18. Chroma subsampling                       : 4:2:0
  19. Bit depth                                : 8 bits
  20. Scan type                                : Progressive
  21. Bits/(Pixel*Frame)                       : 0.123
  22. Stream size                              : 2.72 GiB (92%)
  23. Title                                    : Battle.Star.Wars.2020.1080p.WEB-DL.DD5.1.H264-FGT
  24. Language                                 : English
  25. Default                                  : Yes
  26. Forced                                   : No
  27. Color range                              : Limited
  28. Color primaries                          : BT.709
  29. Transfer characteristics                 : BT.709
  30. Matrix coefficients                      : BT.709

  31. Audio
  32. ID                                       : 2
  33. Format                                   : AC-3
  34. Format/Info                              : Audio Coding 3
  35. Commercial name                          : Dolby Digital
  36. Codec ID                                 : A_AC3
  37. Duration                                 : 1 h 26 min
  38. Bit rate mode                            : Constant
  39. Bit rate                                 : 384 kb/s
  40. Channel(s)                               : 6 channels
  41. Channel layout                           : L R C LFE Ls Rs
  42. Sampling rate                            : 48.0 kHz
  43. Frame rate                               : 31.250 FPS (1536 SPF)
  44. Bit depth                                : 16 bits
  45. Compression mode                         : Lossy
  46. Stream size                              : 236 MiB (8%)
  47. Title                                    : Battle.Star.Wars.2020.1080p.WEB-DL.DD5.1.H264-FGT
  48. Language                                 : English
  49. Service kind                             : Complete Main
  50. Default                                  : Yes
  51. Forced                                   : No

  52. Text
  53. ID                                       : 3
  54. Format                                   : UTF-8
  55. Codec ID                                 : S_TEXT/UTF8
  56. Codec ID/Info                            : UTF-8 Plain Text
  57. Duration                                 : 1 h 21 min
  58. Bit rate                                 : 92 b/s
  59. Count of elements                        : 1370
  60. Stream size                              : 54.9 KiB (0%)
  61. Language                                 : English
  62. Default                                  : Yes
  63. Forced                                   : No

  64. Menu
  65. 00:00:00.000                             : en:1
  66. 00:15:08.000                             : en:2
  67. 00:38:58.000                             : en:3
  68. 00:55:31.000                             : en:4
  69. 01:12:36.000                             : en:5
  70. 01:22:37.000                             : en:6
复制代码

星球大对决/决战星球 Battle.Star.Wars.2020.1080p.WEB-DL.DD5.1.H264-FGT 2.96GB-2.png 星球大对决/决战星球 Battle.Star.Wars.2020.1080p.WEB-DL.DD5.1.H264-FGT 2.96GB-3.png 星球大对决/决战星球 Battle.Star.Wars.2020.1080p.WEB-DL.DD5.1.H264-FGT 2.96GB-4.png






回复

使用道具 举报

懒得打字嘛,点击右侧快捷回复 【右侧内容,后台自定义】
您需要登录后才可以回帖 登录 | 立即加入

本版积分规则

Archiver|小黑屋| 蓝光电影网 |网站地图

Copyright © 2021 Comsenz Inc. Powered by 蓝光电影网

蓝光电影网

本站内容由用户自主分享和转载自互联网,转载目的在于传递更多信息,并不代表本网赞同其观点和对其真实性负责。

如有侵权、违反国家法律政策行为,请联系我们,我们会第一时间及时清除和处理!

举报反馈邮箱:[email protected]

快速回复 返回顶部 返回列表