找回密码

蓝光电影网

查看: 2044|回复: 2

[战争] 最后一搏/终极衡量 The.Last.Full.Measure.2019.720p.BluRay.x264-GETiT 5.47GB

[复制链接]
蓝光币
1082
发表于 2020-1-29 20:25:42 | 显示全部楼层 |阅读模式
最初一搏/终极权衡 The.Last.Full.Measure.2019.720p.BluRay.x264-GETiT 5.47GB-1.png

译  名 最初一搏 / 终极权衡
片  名 The Last Full Measure
年  代 2020
产  地 美国
类  别 剧情 / 战争
语  言 英语
上映日期 2020-01-24(美国)
IMDb评分  6.4/10 from 830 users
IMDb链接  https://www.imdb.com/title/tt0783640
豆瓣评分 0/10 from 0 users
豆瓣链接 https://movie.douban.com/subject/1905779/
片  长 110分钟
导  演 托德·罗宾森 Todd Robinson
编  剧 托德·罗宾森 Todd Robinson
主  演 塞缪尔·杰克逊 Samuel L. Jackson
       塞巴斯蒂安·斯坦 Sebastian Stan
       克里斯托弗·普卢默 Christopher Plummer
       布莱德利·惠特福德 Bradley Whitford
       彼得·方达 Peter Fonda
       艾德·哈里斯 Ed Harris
       艾莉森·萨多尔 Alison Sudol
       杰瑞米·艾文 Jeremy Irvine
       威廉·赫特 William Hurt
       戴安·拉德 Diane Ladd
       迈克尔·因佩里奥利 Michael Imperioli
       莱纳斯·罗彻 Linus Roache
       埃米·马迪根 Amy Madigan
       约翰·萨维奇 John Savage
       罗伯特·派恩 Robert Pine
       扎齐·罗伊瑞格 Zach Roerig
       麦克斯·盖尔 Max Gail
       丽莎·盖伊·汉密尔顿 Lisa Gay Hamilton
       代尔·戴 Dale Dye
       瑟达吕斯·布兰 Ser'Darius Blain
       柯迪·沃克 Cody Walker
       特拉维斯·阿隆·韦德 Travis Aaron Wade
       詹姆斯·贾格尔 James Jagger
       维布尔·弗利茨杰拉德 Wilbur Fitzgerald
       理查德·考索恩 Richard Cawthorne
       里克·赖茨 Ric Reitz
       阿瑟·迈尔斯·法里卡 Asher Miles Fallica
       朱利安·亚当斯 Julian Adams
       丹·雷诺兹 Dan Renalds
       贾迈尔·钱伯斯 Jamel Chambers
       罗宾·戴克 Robin Dyke
       胡安·贾斯帕 Juan Gaspard
       佩里·约翰逊 Perry Johnson
       奥罗拉·卡琳 Aurora Karine
       瑞恩·牛顿 Ryan Newton
       帕蒂·舍尔哈斯 Patti Schellhaas
       特拉维斯·汤普森 Travis Thompson
       罗伯特·廷斯利 Robert Tinsley
       Martin Copping
       Tyler Robinson


标  签 战争 | SebastianStan | 美国 | 美国电影 | 历史 | 南北战争 | 剧情 | 史诗

简  介  

  故事的仆人公是一个很有野心的政府权要。某天他接管了一件辣手的使命:完成一份关于授与一个豪杰以国家最高声誉的报告。题目是,这个豪杰的业绩是发生在四十年前,而且并不像凡是的那样毫无瑕疵。在观察这起事务中,仆人公的生活发生了难以预感的改变,同时也殃及了四周的人们
  1. Video
  2. ID                                       : 1
  3. Format                                   : AVC
  4. Format/Info                              : Advanced Video Codec
  5. Format profile                           : [email protected]
  6. Format settings                          : CABAC / 5 Ref Frames
  7. Format settings, CABAC                   : Yes
  8. Format settings, Reference frames        : 5 frames
  9. Codec ID                                 : V_MPEG4/ISO/AVC
  10. Duration                                 : 1 h 55 min
  11. Bit rate                                 : 5 284 kb/s
  12. Width                                    : 1 280 pixels
  13. Height                                   : 536 pixels
  14. Display aspect ratio                     : 2.40:1
  15. Frame rate mode                          : Constant
  16. Frame rate                               : 24.000 FPS
  17. Color space                              : YUV
  18. Chroma subsampling                       : 4:2:0
  19. Bit depth                                : 8 bits
  20. Scan type                                : Progressive
  21. Bits/(Pixel*Frame)                       : 0.321
  22. Stream size                              : 4.25 GiB (78%)
  23. Writing library                          : x264 core 158 r2988 7817004
  24. Encoding settings                        : cabac=1 / ref=5 / deblock=1:0:0 / analyse=0x3:0x133 / me=umh / subme=7 / psy=1 / psy_rd=1.00:0.00 / mixed_ref=1 / me_range=16 / chroma_me=1 / trellis=2 / 8x8dct=1 / cqm=0 / deadzone=21,11 / fast_pskip=0 / chroma_qp_offset=-2 / threads=16 / lookahead_threads=2 / sliced_threads=0 / nr=0 / decimate=1 / interlaced=0 / bluray_compat=0 / constrained_intra=0 / bframes=3 / b_pyramid=2 / b_adapt=1 / b_bias=0 / direct=3 / weightb=1 / open_gop=0 / weightp=2 / keyint=250 / keyint_min=24 / scenecut=40 / intra_refresh=0 / rc_lookahead=50 / rc=2pass / mbtree=1 / bitrate=5284 / ratetol=1.0 / qcomp=0.60 / qpmin=0 / qpmax=69 / qpstep=4 / cplxblur=20.0 / qblur=0.5 / ip_ratio=1.40 / aq=1:1.00
  25. Language                                 : English
  26. Default                                  : Yes
  27. Forced                                   : No

  28. Audio
  29. ID                                       : 2
  30. Format                                   : DTS
  31. Format/Info                              : Digital Theater Systems
  32. Codec ID                                 : A_DTS
  33. Duration                                 : 1 h 55 min
  34. Bit rate mode                            : Constant
  35. Bit rate                                 : 1 509 kb/s
  36. Channel(s)                               : 6 channels
  37. Channel layout                           : C L R Ls Rs LFE
  38. Sampling rate                            : 48.0 kHz
  39. Frame rate                               : 93.750 FPS (512 SPF)
  40. Bit depth                                : 24 bits
  41. Compression mode                         : Lossy
  42. Stream size                              : 1.21 GiB (22%)
  43. Title                                    : DTS
  44. Language                                 : English
  45. Default                                  : Yes
  46. Forced                                   : No

  47. Menu
  48. 00:00:00.000                             : en:00:00:00.000
  49. 00:12:14.083                             : en:00:12:14.083
  50. 00:20:48.250                             : en:00:20:48.250
  51. 00:29:30.542                             : en:00:29:30.542
  52. 00:39:53.583                             : en:00:39:53.583
  53. 00:49:15.792                             : en:00:49:15.792
  54. 01:00:08.375                             : en:01:00:08.375
  55. 01:09:24.792                             : en:01:09:24.792
  56. 01:20:04.958                             : en:01:20:04.958
  57. 01:30:16.375                             : en:01:30:16.375
  58. 01:41:43.250                             : en:01:41:43.250
  59. 01:50:05.708                             : en:01:50:05.708
复制代码

最初一搏/终极权衡 The.Last.Full.Measure.2019.720p.BluRay.x264-GETiT 5.47GB-2.png




回复

使用道具 举报

蓝光币
82
发表于 2020-1-30 12:26:32 | 显示全部楼层
楼主发贴辛苦了,谢谢楼主分享!我觉得蓝光电影网是注册对了!
回复 支持 反对

使用道具 举报

蓝光币
43
发表于 2020-2-20 10:47:07 | 显示全部楼层
更新的这么快,不错
回复 支持 反对

使用道具 举报

懒得打字嘛,点击右侧快捷回复 【右侧内容,后台自定义】
您需要登录后才可以回帖 登录 | 立即加入

本版积分规则

Archiver|小黑屋| 蓝光电影网 |网站地图

Copyright © 2021 Comsenz Inc. Powered by 蓝光电影网

蓝光电影网

本站内容由用户自主分享和转载自互联网,转载目的在于传递更多信息,并不代表本网赞同其观点和对其真实性负责。

如有侵权、违反国家法律政策行为,请联系我们,我们会第一时间及时清除和处理!

举报反馈邮箱:[email protected]

快速回复 返回顶部 返回列表