找回密码

蓝光电影网

查看: 1302|回复: 6

[REMUX.HEVC] 第一滴血2 1985.2160p.BluRay.REMUX.HEVC.DTS-HD.MA.5.1-FGT 52GB

[复制链接]
蓝光币
1020
发表于 2020-1-29 20:54:54 | 显示全部楼层 |阅读模式
第一滴血2 1985.2160p.BluRay.REMUX.HEVC.DTS-HD.MA.5.1-FGT 52GB-1.jpg

译  名 第一滴血2 / 兰博2

片  名 Rambo: First Blood Part II

年  代 1985

产  地 美国

类  别 行动 / 惊悚 / 冒险

语  言 英语 / 越南语

上映日期 1985-05-22(美国)

IMDb评分 6.4/10 from 133555 users

IMDb链接 http://www.imdb.com/title/tt0089880

豆瓣评分 7.7/10 from 26071 users

豆瓣链接 https://movie.douban.com/subject/1300361/

片  长 96 分钟

导  演 George P. Cosmatos

编  剧 Sylvester Stallone / James Cameron / Kevin Jarre / David Morrell / George Cheung

主  演 Sylvester Stallone

      Richard Crenna

      Steven Berkoff

      Charles Napier

      Julia Nickson-Soul

      Martin Kove













简  介




  神勇的蓝波(西尔维斯特·史泰龙 Sylvester Stallone 饰)又返来了!此次,蓝波受命返回越南观察失落的美军能否已成为战俘。但是,蓝波甫一登陆越南,一切装备和兵器都丧失了!随身剩下的,只要一把军刀和一套军用弓箭。

身处逆境的蓝波,偶然发现了出售他的正是自己的军队!蓝波在九死平生之际,获得了当地一位越南少女的帮助。在少女的帮助下,蓝波凭仗其高明的求生技术和顽强的意志,克服了一切困难,终究逃诞生天。

蓝波决议向出售他的人重拳反击!





  1. Video
  2. ID : 1
  3. Format : HEVC
  4. Format/Info : High Efficiency Video Coding
  5. Commercial name : HDR10
  6. Format profile : Main [email protected]@High
  7. Codec ID : V_MPEGH/ISO/HEVC
  8. Duration : 1 h 35 min
  9. Bit rate : 64.2 Mb/s
  10. Width : 3 840 pixels
  11. Height : 2 160 pixels
  12. Display aspect ratio : 16:9
  13. Frame rate mode : Constant
  14. Frame rate : 24.000 FPS
  15. Color space : YUV
  16. Chroma subsampling : 4:2:0 (Type 2)
  17. Bit depth : 10 bits
  18. Bits/(Pixel*Frame) : 0.323
  19. Stream size : 43.0 GiB (81%)
  20. Title : Rambo.First.Blood.Part.II.1985.2160p.BluRay.REMUX.HEVC.DTS-HD.MA.5.1-FGT
  21. Writing library : ATEME Titan File 3.8.22 (4.8.22.0)
  22. Default : Yes
  23. Forced : No
  24. Color range : Limited
  25. Color primaries : BT.2020
  26. Transfer characteristics : PQ
  27. Matrix coefficients : BT.2020 non-constant
  28. Mastering display color primaries : Display P3
  29. Mastering display luminance : min: 0.0001 cd/m2, max: 1000 cd/m2
  30. Maximum Content Light Level : 479 cd/m2
  31. Maximum Frame-Average Light Level : 464 cd/m2

  32. Audio #1
  33. ID : 2
  34. Format : DTS XLL
  35. Format/Info : Digital Theater Systems
  36. Commercial name : DTS-HD Master Audio
  37. Codec ID : A_DTS
  38. Duration : 1 h 35 min
  39. Bit rate mode : Variable
  40. Bit rate : 4 174 kb/s
  41. Channel(s) : 6 channels
  42. Channel layout : C L R Ls Rs LFE
  43. Sampling rate : 48.0 kHz
  44. Frame rate : 93.750 FPS (512 SPF)
  45. Bit depth : 24 bits
  46. Compression mode : Lossless
  47. Stream size : 2.79 GiB (5%)
  48. Title : Rambo.First.Blood.Part.II.1985.2160p.BluRay.REMUX.HEVC.DTS-HD.MA.5.1-FGT
  49. Language : English
  50. Default : Yes
  51. Forced : No

  52. Audio #2
  53. ID : 3
  54. Format : DTS XLL
  55. Format/Info : Digital Theater Systems
  56. Commercial name : DTS-HD Master Audio
  57. Codec ID : A_DTS
  58. Duration : 1 h 35 min
  59. Bit rate mode : Variable
  60. Bit rate : 4 077 kb/s
  61. Channel(s) : 6 channels
  62. Channel layout : C L R Ls Rs LFE
  63. Sampling rate : 48.0 kHz
  64. Frame rate : 93.750 FPS (512 SPF)
  65. Bit depth : 24 bits
  66. Compression mode : Lossless
  67. Stream size : 2.73 GiB (5%)
  68. Title : Rambo.First.Blood.Part.II.1985.2160p.BluRay.REMUX.HEVC.DTS-HD.MA.5.1-FGT
  69. Language : French
  70. Default : No
  71. Forced : No

  72. Audio #3
  73. ID : 4
  74. Format : DTS XLL
  75. Format/Info : Digital Theater Systems
  76. Commercial name : DTS-HD Master Audio
  77. Codec ID : A_DTS
  78. Duration : 1 h 35 min
  79. Bit rate mode : Variable
  80. Bit rate : 4 532 kb/s
  81. Channel(s) : 6 channels
  82. Channel layout : C L R Ls Rs LFE
  83. Sampling rate : 48.0 kHz
  84. Frame rate : 93.750 FPS (512 SPF)
  85. Bit depth : 24 bits
  86. Compression mode : Lossless
  87. Stream size : 3.03 GiB (6%)
  88. Title : Rambo.First.Blood.Part.II.1985.2160p.BluRay.REMUX.HEVC.DTS-HD.MA.5.1-FGT
  89. Language : German
  90. Default : No
  91. Forced : No

  92. Audio #4
  93. ID : 5
  94. Format : DTS XLL
  95. Format/Info : Digital Theater Systems
  96. Commercial name : DTS-HD Master Audio
  97. Codec ID : A_DTS
  98. Duration : 1 h 35 min
  99. Bit rate mode : Variable
  100. Bit rate : 1 348 kb/s
  101. Channel(s) : 2 channels
  102. Channel layout : L R
  103. Sampling rate : 48.0 kHz
  104. Frame rate : 93.750 FPS (512 SPF)
  105. Bit depth : 24 bits
  106. Compression mode : Lossless
  107. Stream size : 924 MiB (2%)
  108. Title : Rambo.First.Blood.Part.II.1985.2160p.BluRay.REMUX.HEVC.DTS-HD.MA.5.1-FGT
  109. Language : German
  110. Default : No
  111. Forced : No

  112. Audio #5
  113. ID : 6
  114. Format : DTS
  115. Format/Info : Digital Theater Systems
  116. Codec ID : A_DTS
  117. Duration : 1 h 35 min
  118. Bit rate mode : Constant
  119. Bit rate : 318 kb/s
  120. Channel(s) : 2 channels
  121. Channel layout : L R
  122. Sampling rate : 48.0 kHz
  123. Frame rate : 93.750 FPS (512 SPF)
  124. Bit depth : 24 bits
  125. Compression mode : Lossy
  126. Stream size : 218 MiB (0%)
  127. Title : Rambo.First.Blood.Part.II.1985.2160p.BluRay.REMUX.HEVC.DTS-HD.MA.5.1-FGT
  128. Language : English
  129. Default : No
  130. Forced : No

  131. Audio #6
  132. ID : 7
  133. Format : DTS
  134. Format/Info : Digital Theater Systems
  135. Codec ID : A_DTS
  136. Duration : 1 h 35 min
  137. Bit rate mode : Constant
  138. Bit rate : 318 kb/s
  139. Channel(s) : 2 channels
  140. Channel layout : L R
  141. Sampling rate : 48.0 kHz
  142. Frame rate : 93.750 FPS (512 SPF)
  143. Bit depth : 24 bits
  144. Compression mode : Lossy
  145. Stream size : 218 MiB (0%)
  146. Title : Rambo.First.Blood.Part.II.1985.2160p.BluRay.REMUX.HEVC.DTS-HD.MA.5.1-FGT
  147. Language : English
  148. Default : No
  149. Forced : No

  150. Text #1
  151. ID : 8
  152. Format : PGS
  153. Muxing mode : zlib
  154. Codec ID : S_HDMV/PGS
  155. Codec ID/Info : Picture based subtitle format used on BDs/HD-DVDs
  156. Duration : 1 h 34 min
  157. Bit rate : 10.4 kb/s
  158. Count of elements : 882
  159. Stream size : 7.06 MiB (0%)
  160. Title : English-PGS
  161. Language : English
  162. Default : Yes
  163. Forced : No

  164. Text #2
  165. ID : 9
  166. Format : PGS
  167. Muxing mode : zlib
  168. Codec ID : S_HDMV/PGS
  169. Codec ID/Info : Picture based subtitle format used on BDs/HD-DVDs
  170. Duration : 1 h 31 min
  171. Bit rate : 11.7 kb/s
  172. Count of elements : 842
  173. Stream size : 7.68 MiB (0%)
  174. Title : German-PGS
  175. Language : German
  176. Default : No
  177. Forced : No

  178. Text #3
  179. ID : 10
  180. Format : PGS
  181. Muxing mode : zlib
  182. Codec ID : S_HDMV/PGS
  183. Codec ID/Info : Picture based subtitle format used on BDs/HD-DVDs
  184. Duration : 1 h 31 min
  185. Bit rate : 9 569 b/s
  186. Count of elements : 960
  187. Stream size : 6.26 MiB (0%)
  188. Title : French-PGS
  189. Language : French
  190. Default : No
  191. Forced : No

  192. Text #4
  193. ID : 11
  194. Format : PGS
  195. Muxing mode : zlib
  196. Codec ID : S_HDMV/PGS
  197. Codec ID/Info : Picture based subtitle format used on BDs/HD-DVDs
  198. Duration : 1 h 33 min
  199. Bit rate : 19.2 kb/s
  200. Count of elements : 1230
  201. Stream size : 12.8 MiB (0%)
  202. Title : German-FORCED-PGS
  203. Language : German
  204. Default : No
  205. Forced : No

  206. Text #5
  207. ID : 12
  208. Format : PGS
  209. Muxing mode : zlib
  210. Codec ID : S_HDMV/PGS
  211. Codec ID/Info : Picture based subtitle format used on BDs/HD-DVDs
  212. Duration : 1 h 35 min
  213. Bit rate : 24.3 kb/s
  214. Count of elements : 1908
  215. Stream size : 16.5 MiB (0%)
  216. Title : French-FORCED-PGS
  217. Language : French
  218. Default : No
  219. Forced : No

  220. Text #6
  221. ID : 13
  222. Format : PGS
  223. Muxing mode : zlib
  224. Codec ID : S_HDMV/PGS
  225. Codec ID/Info : Picture based subtitle format used on BDs/HD-DVDs
  226. Duration : 4 s 542 ms
  227. Bit rate : 21.8 kb/s
  228. Count of elements : 2
  229. Stream size : 12.1 KiB (0%)
  230. Title : French-FORCED-PGS
  231. Language : French
  232. Default : No
  233. Forced : No

  234. Menu
  235. 00:00:00.000 : :Chapter 1
  236. 00:09:02.083 : :Chapter 2
  237. 00:17:38.208 : :Chapter 3
  238. 00:26:11.625 : :Chapter 4
  239. 00:35:21.666 : :Chapter 5
  240. 00:45:45.541 : :Chapter 6
  241. 00:55:17.791 : :Chapter 7
  242. 01:06:15.083 : :Chapter 8
  243. 01:15:45.458 : :Chapter 9
  244. 01:26:23.666 : :Chapter 10
复制代码




第一滴血2 1985.2160p.BluRay.REMUX.HEVC.DTS-HD.MA.5.1-FGT 52GB-2.jpg 第一滴血2 1985.2160p.BluRay.REMUX.HEVC.DTS-HD.MA.5.1-FGT 52GB-3.jpg





回复

使用道具 举报

蓝光币
768
发表于 2020-1-30 09:34:52 | 显示全部楼层
谢谢楼主无私分享。
回复 支持 反对

使用道具 举报

蓝光币
2
发表于 2020-1-30 22:01:11 | 显示全部楼层
谢谢楼主!
回复

使用道具 举报

蓝光币
2940
发表于 2020-1-30 22:29:40 | 显示全部楼层
楼主发贴辛苦了,谢谢楼主分享!我觉得蓝光电影网是注册对了!
回复 支持 反对

使用道具 举报

蓝光币
648
发表于 2020-7-18 23:12:49 | 显示全部楼层
Thanks♪(・ω・)ノ
回复 支持 反对

使用道具 举报

蓝光币
514
发表于 2022-3-2 20:15:42 | 显示全部楼层

这东西我收了!谢谢楼主!蓝光电影网真好!
回复 支持 反对

使用道具 举报

蓝光币
151
发表于 2022-8-16 16:35:58 | 显示全部楼层
感谢楼主分享
回复 支持 反对

使用道具 举报

懒得打字嘛,点击右侧快捷回复 【右侧内容,后台自定义】
您需要登录后才可以回帖 登录 | 立即加入

本版积分规则

Archiver|小黑屋| 蓝光电影网 |网站地图

Copyright © 2021 Comsenz Inc. Powered by 蓝光电影网

蓝光电影网

本站内容由用户自主分享和转载自互联网,转载目的在于传递更多信息,并不代表本网赞同其观点和对其真实性负责。

如有侵权、违反国家法律政策行为,请联系我们,我们会第一时间及时清除和处理!

举报反馈邮箱:[email protected]

快速回复 返回顶部 返回列表