找回密码

蓝光电影网

查看: 1778|回复: 9

[10bit.HDR] 第一滴血2 1985.2160p.UHD.BluRay.X265.10bit.HDR.DTS-HD.MA.5.1-IAMABLE 30GB

[复制链接]
蓝光币
1022
发表于 2020-1-29 20:55:55 | 显示全部楼层 |阅读模式
第一滴血2 1985.2160p.UHD.BluRay.X265.10bit.HDR.DTS-HD.MA.5.1-IAMABLE 30GB-1.jpg

译  名 第一滴血2 / 兰博2

片  名 Rambo: First Blood Part II

年  代 1985

产  地 美国

类  别 行动 / 惊悚 / 冒险

语  言 英语 / 越南语

上映日期 1985-05-22(美国)

IMDb评分 6.4/10 from 133555 users

IMDb链接 http://www.imdb.com/title/tt0089880

豆瓣评分 7.7/10 from 26071 users

豆瓣链接 https://movie.douban.com/subject/1300361/

片  长 96 分钟

导  演 George P. Cosmatos

编  剧 Sylvester Stallone / James Cameron / Kevin Jarre / David Morrell / George Cheung

主  演 Sylvester Stallone

      Richard Crenna

      Steven Berkoff

      Charles Napier

      Julia Nickson-Soul

      Martin Kove













简  介




  神勇的蓝波(西尔维斯特·史泰龙 Sylvester Stallone 饰)又返来了!此次,蓝波受命返回越南观察失落的美军能否已成为战俘。但是,蓝波甫一登陆越南,一切装备和兵器都丧失了!随身剩下的,只要一把军刀和一套军用弓箭。

身处逆境的蓝波,偶然发现了出售他的正是自己的军队!蓝波在九死平生之际,获得了当地一位越南少女的帮助。在少女的帮助下,蓝波凭仗其高明的求生技术和顽强的意志,克服了一切困难,终究逃诞生天。

蓝波决议向出售他的人重拳反击!





  1. Video
  2. ID : 1
  3. Format : HEVC
  4. Format/Info : High Efficiency Video Coding
  5. Commercial name : HDR10
  6. Format profile : Main [email protected]@High
  7. Codec ID : V_MPEGH/ISO/HEVC
  8. Duration : 1 h 35 min
  9. Bit rate : 40.4 Mb/s
  10. Width : 3 840 pixels
  11. Height : 1 632 pixels
  12. Display aspect ratio : 2.35:1
  13. Frame rate mode : Constant
  14. Frame rate : 24.000 FPS
  15. Color space : YUV
  16. Chroma subsampling : 4:2:0 (Type 2)
  17. Bit depth : 10 bits
  18. Bits/(Pixel*Frame) : 0.269
  19. Stream size : 27.1 GiB (90%)
  20. Writing library : x265 2.8 66-88ee12651e30:[Windows][GCC 6.3.0][64 bit] 10bit
  21. Encoding settings : cpuid=1111039 / frame-threads=4 / numa-pools=16 / wpp / no-pmode / no-pme / no-psnr / no-ssim / log-level=2 / input-csp=1 / input-res=3840x1632 / interlace=0 / total-frames=137992 / level-idc=51 / high-tier=1 / uhd-bd=0 / ref=4 / no-allow-non-conformance / repeat-headers / annexb / aud / hrd / info / hash=0 / no-temporal-layers / no-open-gop / min-keyint=24 / keyint=240 / gop-lookahead=0 / bframes=4 / b-adapt=2 / b-pyramid / bframe-bias=0 / rc-lookahead=25 / lookahead-slices=4 / scenecut=40 / radl=0 / no-intra-refresh / ctu=64 / min-cu-size=8 / rect / no-amp / max-tu-size=32 / tu-inter-depth=1 / tu-intra-depth=1 / limit-tu=0 / rdoq-level=2 / dynamic-rd=0.00 / no-ssim-rd / signhide / no-tskip / nr-intra=0 / nr-inter=0 / no-constrained-intra / no-strong-intra-smoothing / max-merge=3 / limit-refs=3 / limit-modes / me=3 / subme=3 / merange=57 / temporal-mvp / weightp / no-weightb / no-analyze-src-pics / deblock=-3:-3 / no-sao / no-sao-non-deblock / rd=4 / no-early-skip / rskip / no-fast-intra / no-tskip-fast / no-cu-lossless / no-b-intra / no-splitrd-skip / rdpenalty=0 / psy-rd=2.00 / psy-rdoq=1.00 / no-rd-refine / no-lossless / cbqpoffs=0 / crqpoffs=0 / rc=crf / crf=17.0 / qcomp=0.60 / qpstep=4 / stats-write=0 / stats-read=0 / vbv-maxrate=160000 / vbv-bufsize=160000 / vbv-init=0.9 / crf-max=0.0 / crf-min=0.0 / ipratio=1.40 / pbratio=1.30 / aq-mode=1 / aq-strength=1.00 / cutree / zone-count=0 / no-strict-cbr / qg-size=32 / no-rc-grain / qpmax=69 / qpmin=0 / no-const-vbv / sar=1 / overscan=0 / videoformat=5 / range=0 / colorprim=9 / transfer=16 / colormatrix=9 / chromaloc=1 / chromaloc-top=2 / chromaloc-bottom=2 / display-window=0 / master-display=G(13250,34500)B(7500,3000)R(34000,16000)WP(15635,16450)L(10000000,01) / max-cll=479,464 / min-luma=0 / max-luma=1023 / log2-max-poc-lsb=8 / vui-timing-info / vui-hrd-info / slices=1 / no-opt-qp-pps / no-opt-ref-list-length-pps / no-multi-pass-opt-rps / scenecut-bias=0.05 / no-opt-cu-delta-qp / no-aq-motion / hdr / hdr-opt / no-dhdr10-opt / no-idr-recovery-sei / analysis-reuse-level=5 / scale-factor=0 / refine-intra=0 / refine-inter=0 / refine-mv=0 / no-limit-sao / ctu-info=0 / no-lowpass-dct / refine-mv-type=0 / copy-pic=1 / max-ausize-factor=1.0 / no-dynamic-refine / no-single-sei
  22. Default : Yes
  23. Forced : No
  24. Color range : Limited
  25. Color primaries : BT.2020
  26. Transfer characteristics : PQ
  27. Matrix coefficients : BT.2020 non-constant
  28. Mastering display color primaries : Display P3
  29. Mastering display luminance : min: 0.0001 cd/m2, max: 1000 cd/m2
  30. Maximum Content Light Level : 479 cd/m2
  31. Maximum Frame-Average Light Level : 464 cd/m2

  32. Audio #1
  33. ID : 2
  34. Format : DTS XLL
  35. Format/Info : Digital Theater Systems
  36. Commercial name : DTS-HD Master Audio
  37. Codec ID : A_DTS
  38. Duration : 1 h 35 min
  39. Bit rate mode : Variable
  40. Bit rate : 4 174 kb/s
  41. Channel(s) : 6 channels
  42. Channel layout : C L R Ls Rs LFE
  43. Sampling rate : 48.0 kHz
  44. Frame rate : 93.750 FPS (512 SPF)
  45. Bit depth : 24 bits
  46. Compression mode : Lossless
  47. Stream size : 2.79 GiB (9%)
  48. Title : DTS-HD MA 5.1
  49. Language : English
  50. Default : Yes
  51. Forced : No

  52. Audio #2
  53. ID : 3
  54. Format : DTS
  55. Format/Info : Digital Theater Systems
  56. Codec ID : A_DTS
  57. Duration : 1 h 35 min
  58. Bit rate mode : Constant
  59. Bit rate : 318 kb/s
  60. Channel(s) : 2 channels
  61. Channel layout : L R
  62. Sampling rate : 48.0 kHz
  63. Frame rate : 93.750 FPS (512 SPF)
  64. Bit depth : 24 bits
  65. Compression mode : Lossy
  66. Stream size : 218 MiB (1%)
  67. Title : Commentary by director George P. Cosmatos
  68. Language : English
  69. Default : No
  70. Forced : No

  71. Text #1
  72. ID : 4
  73. Format : UTF-8
  74. Codec ID : S_TEXT/UTF8
  75. Codec ID/Info : UTF-8 Plain Text
  76. Duration : 1 h 34 min
  77. Bit rate : 20 b/s
  78. Count of elements : 441
  79. Stream size : 14.5 KiB (0%)
  80. Title : Full SRT
  81. Language : English
  82. Default : No
  83. Forced : No

  84. Text #2
  85. ID : 5
  86. Format : PGS
  87. Muxing mode : zlib
  88. Codec ID : S_HDMV/PGS
  89. Codec ID/Info : Picture based subtitle format used on BDs/HD-DVDs
  90. Duration : 1 h 34 min
  91. Bit rate : 10.4 kb/s
  92. Count of elements : 882
  93. Stream size : 7.06 MiB (0%)
  94. Title : Full
  95. Language : English
  96. Default : No
  97. Forced : No

  98. Text #3
  99. ID : 6
  100. Format : PGS
  101. Muxing mode : zlib
  102. Codec ID : S_HDMV/PGS
  103. Codec ID/Info : Picture based subtitle format used on BDs/HD-DVDs
  104. Duration : 1 h 31 min
  105. Bit rate : 9 569 b/s
  106. Count of elements : 960
  107. Stream size : 6.26 MiB (0%)
  108. Language : French
  109. Default : No
  110. Forced : No

  111. Text #4
  112. ID : 7
  113. Format : PGS
  114. Muxing mode : zlib
  115. Codec ID : S_HDMV/PGS
  116. Codec ID/Info : Picture based subtitle format used on BDs/HD-DVDs
  117. Duration : 1 h 35 min
  118. Bit rate : 24.3 kb/s
  119. Count of elements : 1908
  120. Stream size : 16.5 MiB (0%)
  121. Title : Commentary by director George P. Cosmatos
  122. Language : French
  123. Default : No
  124. Forced : No

  125. Text #5
  126. ID : 8
  127. Format : PGS
  128. Muxing mode : zlib
  129. Codec ID : S_HDMV/PGS
  130. Codec ID/Info : Picture based subtitle format used on BDs/HD-DVDs
  131. Duration : 1 h 31 min
  132. Bit rate : 11.7 kb/s
  133. Count of elements : 842
  134. Stream size : 7.68 MiB (0%)
  135. Language : German
  136. Default : No
  137. Forced : No

  138. Text #6
  139. ID : 9
  140. Format : PGS
  141. Muxing mode : zlib
  142. Codec ID : S_HDMV/PGS
  143. Codec ID/Info : Picture based subtitle format used on BDs/HD-DVDs
  144. Duration : 1 h 33 min
  145. Bit rate : 19.2 kb/s
  146. Count of elements : 1230
  147. Stream size : 12.8 MiB (0%)
  148. Title : Commentary by director George P. Cosmatos
  149. Language : German
  150. Default : No
  151. Forced : No

  152. Menu
  153. 00:00:00.000 : :Chapter 01
  154. 00:09:02.041 : :Chapter 02
  155. 00:17:38.208 : :Chapter 03
  156. 00:26:11.625 : :Chapter 04
  157. 00:35:21.541 : :Chapter 05
  158. 00:45:45.208 : :Chapter 06
  159. 00:55:17.791 : :Chapter 07
  160. 01:06:14.875 : :Chapter 08
  161. 01:15:45.333 : :Chapter 09
  162. 01:26:23.666 : :Chapter 10
复制代码




第一滴血2 1985.2160p.UHD.BluRay.X265.10bit.HDR.DTS-HD.MA.5.1-IAMABLE 30GB-2.jpg 第一滴血2 1985.2160p.UHD.BluRay.X265.10bit.HDR.DTS-HD.MA.5.1-IAMABLE 30GB-3.jpg





回复

使用道具 举报

懒得打字嘛,点击右侧快捷回复 【右侧内容,后台自定义】
您需要登录后才可以回帖 登录 | 立即加入

本版积分规则

Archiver|小黑屋| 蓝光电影网 |网站地图

Copyright © 2021 Comsenz Inc. Powered by 蓝光电影网

蓝光电影网

本站内容由用户自主分享和转载自互联网,转载目的在于传递更多信息,并不代表本网赞同其观点和对其真实性负责。

如有侵权、违反国家法律政策行为,请联系我们,我们会第一时间及时清除和处理!

举报反馈邮箱:[email protected]

快速回复 返回顶部 返回列表