找回密码

蓝光电影网

查看: 363|回复: 4

[喜剧] 大巧局/奇案 Family.Plot.1976.INTERNAL.1080p.BluRay.x264-CLASSiC 11.04GB

[复制链接]
蓝光币
1020
发表于 2020-2-1 00:03:32 | 显示全部楼层 |阅读模式
大巧局/奇案 Family.Plot.1976.INTERNAL.1080p.BluRay.x264-CLASSiC 11.04GB-1.png

译  名 大巧局 / 奇案 / 家庭诡计
片  名 Family Plot
年  代 1976
产  地 美国
类  别 笑剧 / 惊悚 / 犯罪
语  言 英语
上映日期 1976-04-09
IMDb评分  6.8/10 from 19197 users
IMDb链接  https://www.imdb.com/title/tt0074512
豆瓣评分 7.1/10 from 1586 users
豆瓣链接 https://movie.douban.com/subject/1298371/
片  长 121 分钟
导  演 Alfred Hitchcock
编  剧 Ernest Lehman / Victor Canning
主  演 Karen Black
       Bruce Dern
       Barbara Harris
       William Devane


标  签 希区柯克 | 美国 | 悬疑 | 犯罪 | AlfredHitchcock | 1976 | 阿尔弗雷德·希区柯克 | Alfred_Hitchcock

简  介  

  茱莉亚(Cathleen Nesbitt 饰)年龄已高,家财万贯,可是没有子嗣,也就没著名正言顺的继续者,为此,她找到了女巫师布兰奇(芭芭拉·哈里斯 Barbara Harris 饰)。茱莉亚告诉布兰奇,她的妹妹曾有一个私生子,被她送给他人抚养,现在,她想找到这个不幸的孩子,让他继续产业。
  就这样,布兰奇和情人乔治(布鲁斯·邓恩 Bruce Dern 饰)一路展开了观察,得知领养茱莉亚外甥的阿谁家庭全员葬身于大火当中,而纵火的不是他人,正是他们想要找的那小我——爱德华(威廉姆·德瓦内 William Devane 饰)。现在的爱德华更名换姓,成为了一位珠宝商,狡猾的他惧怕昔时的罪行曝光,因而雇佣了昔时帮他脱罪的马罗尼(艾德·劳特 Ed Lauter 饰),让他将布兰奇一行人杀死。
  1. Video
  2. ID                                       : 1
  3. Format                                   : AVC
  4. Format/Info                              : Advanced Video Codec
  5. Format profile                           : [email protected]
  6. Format settings                          : CABAC / 4 Ref Frames
  7. Format settings, CABAC                   : Yes
  8. Format settings, Reference frames        : 4 frames
  9. Codec ID                                 : V_MPEG4/ISO/AVC
  10. Duration                                 : 2 h 0 min
  11. Bit rate                                 : 11.2 Mb/s
  12. Width                                    : 1 920 pixels
  13. Height                                   : 1 040 pixels
  14. Display aspect ratio                     : 1.85:1
  15. Frame rate mode                          : Constant
  16. Frame rate                               : 23.976 (24000/1001) FPS
  17. Color space                              : YUV
  18. Chroma subsampling                       : 4:2:0
  19. Bit depth                                : 8 bits
  20. Scan type                                : Progressive
  21. Bits/(Pixel*Frame)                       : 0.235
  22. Stream size                              : 9.43 GiB (86%)
  23. Writing library                          : x264 core 159 r2991 1771b55
  24. Encoding settings                        : cabac=1 / ref=4 / deblock=1:0:0 / analyse=0x3:0x133 / me=tesa / subme=10 / psy=1 / psy_rd=1.00:0.00 / mixed_ref=1 / me_range=24 / chroma_me=1 / trellis=2 / 8x8dct=1 / cqm=0 / deadzone=21,11 / fast_pskip=0 / chroma_qp_offset=-2 / threads=24 / lookahead_threads=4 / sliced_threads=0 / nr=0 / decimate=1 / interlaced=0 / bluray_compat=0 / constrained_intra=0 / bframes=8 / b_pyramid=0 / b_adapt=2 / b_bias=0 / direct=3 / weightb=1 / open_gop=0 / weightp=2 / keyint=240 / keyint_min=24 / scenecut=40 / intra_refresh=0 / rc_lookahead=60 / rc=2pass / mbtree=1 / bitrate=11242 / ratetol=1.0 / qcomp=0.60 / qpmin=0 / qpmax=69 / qpstep=4 / cplxblur=20.0 / qblur=0.5 / vbv_maxrate=78125 / vbv_bufsize=62500 / nal_hrd=none / filler=0 / ip_ratio=1.40 / aq=1:1.00
  25. Default                                  : Yes
  26. Forced                                   : No
  27. Color range                              : Limited
  28. Color primaries                          : BT.709
  29. Transfer characteristics                 : BT.709
  30. Matrix coefficients                      : BT.709

  31. Audio
  32. ID                                       : 2
  33. Format                                   : DTS XLL
  34. Format/Info                              : Digital Theater Systems
  35. Commercial name                          : DTS-HD Master Audio
  36. Codec ID                                 : A_DTS
  37. Duration                                 : 2 h 0 min
  38. Bit rate mode                            : Variable
  39. Bit rate                                 : 1 770 kb/s
  40. Channel(s)                               : 2 channels
  41. Channel layout                           : L R
  42. Sampling rate                            : 48.0 kHz
  43. Frame rate                               : 93.750 FPS (512 SPF)
  44. Bit depth                                : 24 bits
  45. Compression mode                         : Lossless
  46. Stream size                              : 1.48 GiB (14%)
  47. Language                                 : English
  48. Default                                  : Yes
  49. Forced                                   : No

  50. Menu
  51. 00:00:00.000                             : en:Chapter 01
  52. 00:10:00.266                             : en:Chapter 02
  53. 00:14:03.718                             : en:Chapter 03
  54. 00:19:57.530                             : en:Chapter 04
  55. 00:30:22.487                             : en:Chapter 05
  56. 00:33:36.056                             : en:Chapter 06
  57. 00:41:30.071                             : en:Chapter 07
  58. 00:46:29.245                             : en:Chapter 08
  59. 00:57:25.984                             : en:Chapter 09
  60. 01:01:03.368                             : en:Chapter 10
  61. 01:07:10.235                             : en:Chapter 11
  62. 01:14:28.714                             : en:Chapter 12
  63. 01:29:11.346                             : en:Chapter 13
  64. 01:37:39.729                             : en:Chapter 14
  65. 01:45:25.778                             : en:Chapter 15
  66. 01:53:51.283                             : en:Chapter 16
  67. 01:56:53.632                             : en:Chapter 17
  68. 01:59:08.892                             : en:Chapter 18
复制代码

大巧局/奇案 Family.Plot.1976.INTERNAL.1080p.BluRay.x264-CLASSiC 11.04GB-2.png






回复

使用道具 举报

懒得打字嘛,点击右侧快捷回复 【右侧内容,后台自定义】
您需要登录后才可以回帖 登录 | 立即加入

本版积分规则

Archiver|小黑屋| 蓝光电影网 |网站地图

Copyright © 2021 Comsenz Inc. Powered by 蓝光电影网

蓝光电影网

本站内容由用户自主分享和转载自互联网,转载目的在于传递更多信息,并不代表本网赞同其观点和对其真实性负责。

如有侵权、违反国家法律政策行为,请联系我们,我们会第一时间及时清除和处理!

举报反馈邮箱:[email protected]

快速回复 返回顶部 返回列表