找回密码

蓝光电影网

查看: 569|回复: 4

[剧情] 擒凶记/知情太多的人 The.Man.Who.Knew.Too.Much.1956.INTERNAL.1080p.BluRay.x264-CLASSiC 11.05GB

[复制链接]
蓝光币
1020
发表于 2020-2-1 00:06:28 | 显示全部楼层 |阅读模式
擒凶记/知情太多的人 The.Man.Who.Knew.Too.Much.1956.INTERNAL.1080p.BluRay.x264-CLASSiC 11.05GB-1.png

译  名 擒凶记 / 知情太多的人 / 晓得太多工作的人
片  名 The Man Who Knew Too Much
年  代 1956
产  地 美国
类  别 剧情 / 悬疑
语  言 英语 / 阿拉伯语 / 法语
上映日期 1956-06-01(美国)
IMDb评分  7.5/10 from 53797 users
IMDb链接  https://www.imdb.com/title/tt0049470
豆瓣评分 7.6/10 from 10421 users
豆瓣链接 https://movie.douban.com/subject/1301233/
片  长 120 分钟
导  演 阿尔弗雷德·希区柯克 Alfred Hitchcock
编  剧 约翰·迈克尔·海耶斯 John Michael Hayes / 查尔斯·贝内特 Charles Bennett / 安格斯·麦克费尔 Angus MacPhail / D.B. Wyndham-Lewis
主  演 詹姆斯·斯图尔特 James Stewart
       多丽丝·黛 Doris Day
       布伦达·德·班泽 Brenda De Banzie
       伯纳德·迈尔斯 Bernard Miles
       拉尔夫·杜鲁门 Ralph Truman
       丹尼尔·盖林 Daniel Gélin
       阿兰·莫布雷 Alan Mowbray
       希拉里·布鲁克 Hillary Brooke
       克里斯托弗·奥尔森 Christopher Olsen
       雷吉·纳尔德 Reggie Nalder
       理查德·沃迪斯 Richard Wattis
       诺埃尔·威尔曼 Noel Willman
       伊夫·布雷维尔 Yves Brainville
       卡罗琳·琼斯 Carolyn Jones
       伯纳德·赫尔曼 Bernard Herrmann
       帕特里克·艾亨 Patrick Aherne
       弗兰克·艾伯森 Frank Albertson
       弗兰克·贝克 Frank Baker
       奥利弗·克罗斯 Oliver Cross
       Mogens Wieth
       Alix Talton
       Frank Atkinson
       Walter Bacon
       Betty Bascomb
       Eumenio Blanco
       Lovyss Bradley
       Clifford Buckton
       Albert Carrier
       Alex Frazer
       Wolf Frees


标  签 希区柯克 | 悬疑 | 美国 | AlfredHitchcock | 1956 | 美国电影 | JamesStewart | 1950s

简  介  

  本(詹姆斯·斯图尔特 James Stewart 饰)和乔(桃丽丝·戴 Doris Day 饰)是一对豪情非常要好的夫妻,带着儿子汉克(Christopher Olsen 饰),一家三口来到了风光如画的摩洛哥度假。一次偶然中,本和乔结识了名叫路易斯(丹尼尔·盖林 Daniel Gélin 饰)的汉子,他们在一路相处非常和谐。
  不幸的工作发生了,路易斯被凶名片杀身亡,临死前,他流露了一个奥秘的名字——“安伯斯·查培”,而且告诉本和乔,有人正在伦敦履行一项奥秘的暗杀行动,在得知了这个惊天奥秘后,本和乔来到了伦敦。暗杀者自知行动泄露,为了获得最初的成功,他们不择手段绑架了汉克,可即使如此,也没能摆荡本和乔声张正义的决心。

获奖情况  

  第29届奥斯卡金像奖(1957)
  最好原创歌曲 Jay Livingston / Ray Evans

  第9届戛纳电影节(1956)
  主比赛单元 金棕榈奖(提名) 阿尔弗雷德·希区柯克
  1. Video
  2. ID                                       : 1
  3. Format                                   : AVC
  4. Format/Info                              : Advanced Video Codec
  5. Format profile                           : [email protected]
  6. Format settings                          : CABAC / 4 Ref Frames
  7. Format settings, CABAC                   : Yes
  8. Format settings, Reference frames        : 4 frames
  9. Codec ID                                 : V_MPEG4/ISO/AVC
  10. Duration                                 : 2 h 0 min
  11. Bit rate                                 : 11.2 Mb/s
  12. Width                                    : 1 920 pixels
  13. Height                                   : 1 040 pixels
  14. Display aspect ratio                     : 1.85:1
  15. Frame rate mode                          : Constant
  16. Frame rate                               : 23.976 (24000/1001) FPS
  17. Color space                              : YUV
  18. Chroma subsampling                       : 4:2:0
  19. Bit depth                                : 8 bits
  20. Scan type                                : Progressive
  21. Bits/(Pixel*Frame)                       : 0.234
  22. Stream size                              : 9.42 GiB (86%)
  23. Writing library                          : x264 core 159 r2991 1771b55
  24. Encoding settings                        : cabac=1 / ref=4 / deblock=1:0:0 / analyse=0x3:0x133 / me=tesa / subme=10 / psy=1 / psy_rd=1.00:0.00 / mixed_ref=1 / me_range=24 / chroma_me=1 / trellis=2 / 8x8dct=1 / cqm=0 / deadzone=21,11 / fast_pskip=0 / chroma_qp_offset=-2 / threads=24 / lookahead_threads=4 / sliced_threads=0 / nr=0 / decimate=1 / interlaced=0 / bluray_compat=0 / constrained_intra=0 / bframes=8 / b_pyramid=0 / b_adapt=2 / b_bias=0 / direct=3 / weightb=1 / open_gop=0 / weightp=2 / keyint=240 / keyint_min=24 / scenecut=40 / intra_refresh=0 / rc_lookahead=60 / rc=2pass / mbtree=1 / bitrate=11216 / ratetol=1.0 / qcomp=0.60 / qpmin=0 / qpmax=69 / qpstep=4 / cplxblur=20.0 / qblur=0.5 / vbv_maxrate=78125 / vbv_bufsize=62500 / nal_hrd=none / filler=0 / ip_ratio=1.40 / aq=1:1.00
  25. Default                                  : Yes
  26. Forced                                   : No
  27. Color range                              : Limited
  28. Color primaries                          : BT.709
  29. Transfer characteristics                 : BT.709
  30. Matrix coefficients                      : BT.709

  31. Audio
  32. ID                                       : 2
  33. Format                                   : DTS XLL
  34. Format/Info                              : Digital Theater Systems
  35. Commercial name                          : DTS-HD Master Audio
  36. Codec ID                                 : A_DTS
  37. Duration                                 : 2 h 0 min
  38. Bit rate mode                            : Variable
  39. Bit rate                                 : 1 770 kb/s
  40. Channel(s)                               : 2 channels
  41. Channel layout                           : L R
  42. Sampling rate                            : 48.0 kHz
  43. Frame rate                               : 93.750 FPS (512 SPF)
  44. Bit depth                                : 24 bits
  45. Compression mode                         : Lossless
  46. Stream size                              : 1.49 GiB (14%)
  47. Language                                 : English
  48. Default                                  : Yes
  49. Forced                                   : No

  50. Menu
  51. 00:00:00.000                             : en:Chapter 01
  52. 00:02:49.503                             : en:Chapter 02
  53. 00:12:15.026                             : en:Chapter 03
  54. 00:17:21.332                             : en:Chapter 04
  55. 00:25:09.967                             : en:Chapter 05
  56. 00:32:55.098                             : en:Chapter 06
  57. 00:42:39.098                             : en:Chapter 07
  58. 00:49:23.961                             : en:Chapter 08
  59. 01:00:10.565                             : en:Chapter 09
  60. 01:06:56.304                             : en:Chapter 10
  61. 01:10:10.206                             : en:Chapter 11
  62. 01:15:29.108                             : en:Chapter 12
  63. 01:24:08.919                             : en:Chapter 13
  64. 01:29:18.103                             : en:Chapter 14
  65. 01:37:38.853                             : en:Chapter 15
  66. 01:43:37.878                             : en:Chapter 16
  67. 01:49:45.871                             : en:Chapter 17
  68. 01:56:40.160                             : en:Chapter 18
复制代码

擒凶记/知情太多的人 The.Man.Who.Knew.Too.Much.1956.INTERNAL.1080p.BluRay.x264-CLASSiC 11.05GB-2.png






回复

使用道具 举报

懒得打字嘛,点击右侧快捷回复 【右侧内容,后台自定义】
您需要登录后才可以回帖 登录 | 立即加入

本版积分规则

Archiver|小黑屋| 蓝光电影网 |网站地图

Copyright © 2021 Comsenz Inc. Powered by 蓝光电影网

蓝光电影网

本站内容由用户自主分享和转载自互联网,转载目的在于传递更多信息,并不代表本网赞同其观点和对其真实性负责。

如有侵权、违反国家法律政策行为,请联系我们,我们会第一时间及时清除和处理!

举报反馈邮箱:[email protected]

快速回复 返回顶部 返回列表