找回密码

蓝光电影网

查看: 1161|回复: 1

[恐怖] 变身 Metamorphosis.2019.1080p.BluRay.x264-GiMCHi 7.64GB

[复制链接]
蓝光币
1022
发表于 2020-2-1 00:10:36 | 显示全部楼层 |阅读模式
变身 Metamorphosis.2019.1080p.BluRay.x264-GiMCHi 7.64GB-1.png

译  名 变身 / Byeonshin / Metamorphosis / Transformation
片  名 ??
年  代 2019
产  地 韩国
类  别 可骇
语  言 韩语
上映日期 2019-08-21(韩国)
IMDb评分  5.2/10 from 161 users
IMDb链接  https://www.imdb.com/title/tt10800758
豆瓣评分 5.8/10 from 4290 users
豆瓣链接 https://movie.douban.com/subject/30433391/
片  长 113分钟
导  演 金泓善 Hong-sun Kim
主  演 裴晟祐 Sung-Woo Bae
       成东日 Dong-il Sung
       张荣男 Young-nam Jang
       金惠濬 Hye-joon Kim
       曹怡贤 Yi-hyun Joo
       金嫝勋 Kang Hoon Kim


标  签 可骇 | 驱魔 | 韩国 | 惊悚 | 韩国电影 | 宗教 | 2019 | 悬疑

简  介  

  报告了一个神父为了打败熬煎家人的恶鬼而展开的故事。

获奖情况  

  第40届韩国电影青龙奖(2019)
  最好女配角(提名) 张荣男
  技术奖(提名)
  1. Video
  2. ID                                       : 1
  3. Format                                   : AVC
  4. Format/Info                              : Advanced Video Codec
  5. Format profile                           : [email protected]
  6. Format settings                          : CABAC / 5 Ref Frames
  7. Format settings, CABAC                   : Yes
  8. Format settings, Reference frames        : 5 frames
  9. Codec ID                                 : V_MPEG4/ISO/AVC
  10. Duration                                 : 1 h 52 min
  11. Bit rate                                 : 8 201 kb/s
  12. Width                                    : 1 920 pixels
  13. Height                                   : 800 pixels
  14. Display aspect ratio                     : 2.40:1
  15. Frame rate mode                          : Constant
  16. Frame rate                               : 23.976 (24000/1001) FPS
  17. Color space                              : YUV
  18. Chroma subsampling                       : 4:2:0
  19. Bit depth                                : 8 bits
  20. Scan type                                : Progressive
  21. Bits/(Pixel*Frame)                       : 0.223
  22. Stream size                              : 6.45 GiB (84%)
  23. Writing library                          : x264 core 159 r2991 1771b55
  24. Encoding settings                        : cabac=1 / ref=5 / deblock=1:0:0 / analyse=0x3:0x133 / me=umh / subme=7 / psy=1 / psy_rd=1.00:0.00 / mixed_ref=1 / me_range=16 / chroma_me=1 / trellis=1 / 8x8dct=1 / cqm=0 / deadzone=21,11 / fast_pskip=0 / chroma_qp_offset=-2 / threads=12 / lookahead_threads=2 / sliced_threads=0 / nr=0 / decimate=1 / interlaced=0 / bluray_compat=0 / constrained_intra=0 / bframes=3 / b_pyramid=2 / b_adapt=2 / b_bias=0 / direct=3 / weightb=1 / open_gop=0 / weightp=2 / keyint=240 / keyint_min=23 / scenecut=40 / intra_refresh=0 / rc_lookahead=50 / rc=2pass / mbtree=1 / bitrate=8201 / ratetol=1.0 / qcomp=0.60 / qpmin=0 / qpmax=69 / qpstep=4 / cplxblur=20.0 / qblur=0.5 / ip_ratio=1.40 / aq=1:1.00
  25. Language                                 : English
  26. Default                                  : Yes
  27. Forced                                   : No

  28. Audio
  29. ID                                       : 2
  30. Format                                   : DTS
  31. Format/Info                              : Digital Theater Systems
  32. Codec ID                                 : A_DTS
  33. Duration                                 : 1 h 52 min
  34. Bit rate mode                            : Constant
  35. Bit rate                                 : 1 509 kb/s
  36. Channel(s)                               : 6 channels
  37. Channel layout                           : C L R Ls Rs LFE
  38. Sampling rate                            : 48.0 kHz
  39. Frame rate                               : 93.750 FPS (512 SPF)
  40. Bit depth                                : 24 bits
  41. Compression mode                         : Lossy
  42. Stream size                              : 1.19 GiB (16%)
  43. Title                                    : Korean
  44. Language                                 : Korean
  45. Default                                  : Yes
  46. Forced                                   : No

  47. Text
  48. ID                                       : 3
  49. Format                                   : UTF-8
  50. Codec ID                                 : S_TEXT/UTF8
  51. Codec ID/Info                            : UTF-8 Plain Text
  52. Duration                                 : 1 h 46 min
  53. Bit rate                                 : 29 b/s
  54. Count of elements                        : 932
  55. Stream size                              : 23.1 KiB (0%)
  56. Title                                    : English
  57. Language                                 : English
  58. Default                                  : Yes
  59. Forced                                   : No

  60. Menu
  61. 00:00:00.000                             : en:Chapter 01
  62. 00:06:37.147                             : en:Chapter 02
  63. 00:15:22.171                             : en:Chapter 03
  64. 00:23:44.089                             : en:Chapter 04
  65. 00:31:40.941                             : en:Chapter 05
  66. 00:40:20.335                             : en:Chapter 06
  67. 00:51:24.123                             : en:Chapter 07
  68. 01:04:58.186                             : en:Chapter 08
  69. 01:18:59.068                             : en:Chapter 09
  70. 01:27:26.158                             : en:Chapter 10
  71. 01:37:52.408                             : en:Chapter 11
  72. 01:47:17.765                             : en:Chapter 12
复制代码

变身 Metamorphosis.2019.1080p.BluRay.x264-GiMCHi 7.64GB-2.png






回复

使用道具 举报

蓝光币
264
发表于 2020-2-24 21:03:20 | 显示全部楼层
楼主太厉害了!楼主,电影应该很好看我觉得蓝光电影网真是个好地方!
回复 支持 反对

使用道具 举报

懒得打字嘛,点击右侧快捷回复 【右侧内容,后台自定义】
您需要登录后才可以回帖 登录 | 立即加入

本版积分规则

Archiver|小黑屋| 蓝光电影网 |网站地图

Copyright © 2021 Comsenz Inc. Powered by 蓝光电影网

蓝光电影网

本站内容由用户自主分享和转载自互联网,转载目的在于传递更多信息,并不代表本网赞同其观点和对其真实性负责。

如有侵权、违反国家法律政策行为,请联系我们,我们会第一时间及时清除和处理!

举报反馈邮箱:[email protected]

快速回复 返回顶部 返回列表