找回密码

蓝光电影网

查看: 589|回复: 3

[剧情] 罗马 Roma.2018.720p.BluRay.x264-AAA 5.46GB

[复制链接]
蓝光币
1022
发表于 2020-2-1 00:13:32 | 显示全部楼层 |阅读模式
罗马 Roma.2018.720p.BluRay.x264-AAA 5.46GB-1.png

译  名 罗马 / México '68
片  名 Roma
年  代 2018
产  地 墨西哥 / 美国
类  别 剧情 / 家庭
语  言 西班牙语 / 米斯特克语 / 英语
上映日期 2018-08-30(威尼斯电影节) / 2018-12-14(美国) / 2019-05-10(中国大陆)
IMDb评分  7.7/10 from 121934 users
IMDb链接  https://www.imdb.com/title/tt6155172
豆瓣评分 8.2/10 from 101851 users
豆瓣链接 https://movie.douban.com/subject/1950330/
片  长 135分钟
导  演 阿方索·卡隆 Alfonso Cuarón
编  剧 阿方索·卡隆 Alfonso Cuarón
主  演 雅利扎·阿巴里西奥 Yalitza Aparicio
       玛丽娜·德·塔维拉 Marina de Tavira
       迭戈·科蒂娜·奥特里 Diego Cortina Autrey
       卡洛斯·佩拉尔塔 Carlos Peralta
       马科·格拉夫 Marco Graf
       丹妮拉·德米萨 Daniela Demesa
       南锡·加西亚 Nancy García
       维罗妮卡·加西亚 Verónica García
       安迪·科特斯 Andy Cortés
       费尔南多·格雷迪亚加 Fernando Grediaga
       乔基·安东尼奥·格雷罗 Jorge Antonio Guerrero
       拉丁·洛弗 Latin Lover


标  签 墨西哥 | 女性 | 黑白 | 文艺 | 剧情 | 家庭 | 2018 | 威尼斯电影节

简  介  

  故事发生在墨西哥城的一其中产阶级社区“罗马”,报告年轻女佣克里奥(雅利扎·阿巴里西奥饰)在店主索菲亚(玛丽娜·德·塔维拉饰)家中工作,该家中索菲亚的丈夫持久在外,由女佣克里奥照顾索菲的四个孩子。突如其来的两个意外,同时砸中了女佣克里奥和店主索菲亚,两人究竟该若何面临苦涩茫然的生活?四位孩子似乎是希望地点。 这是以导演阿方索·卡隆的儿时记忆铸成的影片,而卡隆实在就是片中某一位小孩。

获奖情况  

  第91届奥斯卡金像奖(2019)
  最好影片(提名) 阿方索·卡隆 / Gabriela Rodriguez
  最好导演 阿方索·卡隆
  最好女配角(提名) 雅利扎·阿巴里西奥
  最好女配角(提名) 玛丽娜·德·塔维拉
  最好原创剧本(提名) 阿方索·卡隆
  最好外语片 阿方索·卡隆
  最好摄影 阿方索·卡隆
  最好混音(提名) 斯吉普·里埃弗塞 / 克雷格·亨伊恩 / 乔斯·安东尼奥·加西亚
  最好音效剪辑(提名) 塞尔吉奥·迪亚兹 / 斯吉普·里埃弗塞
  最好艺术指导(提名) 尤吉尼奥·卡巴莱罗 / 芭芭拉·恩里克斯

  第75届威尼斯电影节(2018)
  主比赛单元 金狮奖 阿方索·卡隆

  第76届金球奖(2019)
  电影类 最好导演 阿方索·卡隆
  电影类 最好编剧(提名) 阿方索·卡隆
  电影类 最好外语片

  第72届英国电影学院奖(2019)
  电影奖 最好影片
  电影奖 最好导演 阿方索·卡隆
  电影奖 最好原创剧本(提名) 阿方索·卡隆
  电影奖 最好非英语片
  电影奖 最好摄影 阿方索·卡隆
  电影奖 最好剪辑(提名) 阿方索·卡隆 / 亚当·高夫
  电影奖 最好艺术指导(提名) 尤吉尼奥·卡巴莱罗 / 芭芭拉·恩里克斯

  第33届西班牙戈雅奖(2019)
  最好伊比利亚美洲电影

  第64届意大利大卫奖(2019)
  最好外语片

  第43届多伦多国际电影节(2018)
  观众挑选奖(提名)

  第71届美国导演工会奖(2019)
  最好电影导演 阿方索·卡隆

  第71届美国编剧工会奖(2019)
  电影奖 最好原创剧本(提名) 阿方索·卡隆

  第30届美国制片野生会奖(2019)
  最好电影制片人奖(提名)

  第33届美国摄影协会奖(2019)
  电影长片最好摄影(提名) 阿方索·卡隆

  第69届美国剪辑工会奖(2019)
  剧情片最好剪辑(提名) 阿方索·卡隆 / 亚当·高夫

  第23届美国艺术指导工会奖(2019)
  电影奖 最好历史电影艺术指导(提名) 尤吉尼奥·卡巴莱罗

  第66届美国音效剪辑协会奖(2019)
  金卷轴奖 最好电影音效剪辑(提名)
  金卷轴奖 最好电影对白剪辑(提名)
  金卷轴奖 最好外语片音效剪辑
  金卷轴奖 最好配乐剪辑(提名)

  第84届纽约影评人协会奖(2018)
  最好影片
  最好导演 阿方索·卡隆
  最好摄影

  第90届美国国家批评协会奖(2018)
  年度佳片

  第24届美国批评家挑选电影奖(2019)
  最好影片
  最好导演 阿方索·卡隆
  最好女配角(提名) 雅利扎·阿巴里西奥
  最好外语片
  最好原创剧本(提名) 阿方索·卡隆
  最好摄影
  最好剪辑(提名)
  最好美术指导(提名)

  第34届美国自力精神奖(2019)
  最好国际电影

  第21届英国自力电影奖(2018)
  最好本国自力电影 阿方索·卡隆

  第28届哥谭自力电影奖(2018)
  年度冲破演员(提名) 雅利扎·阿巴里西奥

  第19届美国电影学会奖(2018)
  出格表彰

  第23届金卫星奖(2019)
  电影部分 最好导演 阿方索·卡隆
  电影部分 剧情片最好女配角(提名) 雅利扎·阿巴里西奥
  电影部分 最好外语片
  电影部分 最好原创剧本 阿方索·卡隆
  电影部分 最好摄影(提名)
  电影部分 最好剪辑
  电影部分 最好音效(提名)
  电影部分 最好美术指导(提名)

  第22届好莱坞电影奖(2018)
  好莱坞新人奖 雅利扎·阿巴里西奥

  第53届美国国家影评人协会奖(2019)
  最好影片(提名)
  最好导演 阿方索·卡隆
  最好摄影 阿方索·卡隆
  最好外语片

  第17届华盛顿影评人协会奖(2018)
  最好影片
  最好导演 阿方索·卡隆
  最好原创剧本(提名) 阿方索·卡隆
  最好外语片
  最好摄影
  最好剪辑(提名)
  最好艺术指导(提名)

  第39届伦敦影评人协会奖(2019)
  年度电影
  年度外语片(提名)
  年度导演 阿方索·卡隆
  年度编剧(提名) 阿方索·卡隆
  年度女配角(提名) 雅利扎·阿巴里西奥

  第39届波士顿影评人协会奖(2018)
  最好摄影

  第44届洛杉矶影评人协会奖(2018)
  最好影片
  最好摄影
  最好剪辑(提名)

  第31届芝加哥影评人协会奖(2018)
  最好影片
  最好导演 阿方索·卡隆
  最好女配角(提名) 雅利扎·阿巴里西奥
  最好原创剧本(提名) 阿方索·卡隆
  最好外语片
  最好摄影 阿方索·卡隆
  最好剪辑 阿方索·卡隆 / 亚当·高夫
  最好艺术指导(提名)
  最具潜力演员(提名) 雅利扎·阿巴里西奥

  第17届旧金山影评人协会奖(2018)
  最好影片
  最好导演(提名) 阿方索·卡隆
  最好女配角(提名) 雅利扎·阿巴里西奥
  最好原创剧本(提名) 阿方索·卡隆
  最好摄影
  最好艺术指导(提名)
  最好剪辑(提名)
  最好外语片

  第18届温哥华影评人协会奖(2018)
  最好影片
  最好导演(提名) 阿方索·卡隆
  最好外语片

  第52届堪萨斯影评人协会奖(2018)
  最好影片
  最好导演 阿方索·卡隆
  最好女配角(提名) 雅利扎·阿巴里西奥
  最好外语片

  第18届凤凰城影评人协会奖(2018)
  最好导演 阿方索·卡隆
  最好摄影
  最好剪辑
  最好外语片
  十佳影片

  第3届亚特兰大影评人协会奖(2018)
  十佳影片
  最好导演 阿方索·卡隆
  最好外语片
  最好摄影

  第22届美国在线影评人协会奖(2019)
  最好影片
  最好导演 阿方索·卡隆
  最好女配角(提名) 雅利扎·阿巴里西奥
  最好原创剧本(提名) 阿方索·卡隆
  最好剪辑(提名)
  最好摄影
  最好非英语片

  第5届豆瓣电影年度榜单(2018)
  年度冷门佳片(提名)
  1. Video
  2. ID                                       : 1
  3. Format                                   : AVC
  4. Format/Info                              : Advanced Video Codec
  5. Format profile                           : [email protected]
  6. Format settings                          : CABAC / 5 Ref Frames
  7. Format settings, CABAC                   : Yes
  8. Format settings, Reference frames        : 5 frames
  9. Codec ID                                 : V_MPEG4/ISO/AVC
  10. Duration                                 : 2 h 14 min
  11. Bit rate                                 : 5 151 kb/s
  12. Width                                    : 1 280 pixels
  13. Height                                   : 536 pixels
  14. Display aspect ratio                     : 2.40:1
  15. Frame rate mode                          : Constant
  16. Frame rate                               : 23.976 (24000/1001) FPS
  17. Color space                              : YUV
  18. Chroma subsampling                       : 4:2:0
  19. Bit depth                                : 8 bits
  20. Scan type                                : Progressive
  21. Bits/(Pixel*Frame)                       : 0.313
  22. Stream size                              : 4.85 GiB (89%)
  23. Writing library                          : x264 core 159 r2991 1771b55
  24. Encoding settings                        : cabac=1 / ref=5 / deblock=1:-3:-3 / analyse=0x3:0x113 / me=umh / subme=7 / psy=1 / psy_rd=1.00:0.00 / mixed_ref=1 / me_range=16 / chroma_me=1 / trellis=1 / 8x8dct=1 / cqm=0 / deadzone=21,11 / fast_pskip=0 / chroma_qp_offset=-2 / threads=9 / lookahead_threads=1 / sliced_threads=0 / nr=0 / decimate=1 / interlaced=0 / bluray_compat=0 / constrained_intra=0 / bframes=3 / b_pyramid=2 / b_adapt=1 / b_bias=0 / direct=3 / weightb=1 / open_gop=0 / weightp=2 / keyint=240 / keyint_min=23 / scenecut=40 / intra_refresh=0 / rc_lookahead=50 / rc=2pass / mbtree=0 / bitrate=5151 / ratetol=1.0 / qcomp=0.60 / qpmin=0 / qpmax=69 / qpstep=4 / cplxblur=20.0 / qblur=0.5 / vbv_maxrate=62500 / vbv_bufsize=78125 / nal_hrd=none / filler=0 / ip_ratio=1.40 / pb_ratio=1.30 / aq=1:0.75
  25. Default                                  : Yes
  26. Forced                                   : No

  27. Audio
  28. ID                                       : 2
  29. Format                                   : AC-3
  30. Format/Info                              : Audio Coding 3
  31. Commercial name                          : Dolby Digital
  32. Codec ID                                 : A_AC3
  33. Duration                                 : 2 h 14 min
  34. Bit rate mode                            : Constant
  35. Bit rate                                 : 640 kb/s
  36. Channel(s)                               : 6 channels
  37. Channel layout                           : L R C LFE Ls Rs
  38. Sampling rate                            : 48.0 kHz
  39. Frame rate                               : 31.250 FPS (1536 SPF)
  40. Bit depth                                : 16 bits
  41. Compression mode                         : Lossy
  42. Stream size                              : 618 MiB (11%)
  43. Service kind                             : Complete Main
  44. Default                                  : Yes
  45. Forced                                   : No

  46. Text #1
  47. ID                                       : 3
  48. Format                                   : UTF-8
  49. Codec ID                                 : S_TEXT/UTF8
  50. Codec ID/Info                            : UTF-8 Plain Text
  51. Duration                                 : 2 h 8 min
  52. Bit rate                                 : 30 b/s
  53. Count of elements                        : 885
  54. Stream size                              : 29.0 KiB (0%)
  55. Language                                 : English
  56. Default                                  : Yes
  57. Forced                                   : No

  58. Text #2
  59. ID                                       : 4
  60. Format                                   : UTF-8
  61. Codec ID                                 : S_TEXT/UTF8
  62. Codec ID/Info                            : UTF-8 Plain Text
  63. Duration                                 : 2 h 14 min
  64. Bit rate                                 : 34 b/s
  65. Count of elements                        : 905
  66. Stream size                              : 33.5 KiB (0%)
  67. Language                                 : French
  68. Default                                  : No
  69. Forced                                   : No
复制代码

罗马 Roma.2018.720p.BluRay.x264-AAA 5.46GB-1.png






回复

使用道具 举报

懒得打字嘛,点击右侧快捷回复 【右侧内容,后台自定义】
您需要登录后才可以回帖 登录 | 立即加入

本版积分规则

Archiver|小黑屋| 蓝光电影网 |网站地图

Copyright © 2021 Comsenz Inc. Powered by 蓝光电影网

蓝光电影网

本站内容由用户自主分享和转载自互联网,转载目的在于传递更多信息,并不代表本网赞同其观点和对其真实性负责。

如有侵权、违反国家法律政策行为,请联系我们,我们会第一时间及时清除和处理!

举报反馈邮箱:[email protected]

快速回复 返回顶部 返回列表