找回密码

蓝光电影网

查看: 647|回复: 3

[剧情] 没有出口的海 Sea.Without.Exit.2006.JAPANESE.1080p.BluRay.x264.DTS-iKiW 14.51GB

[复制链接]
蓝光币
1020
发表于 2020-2-1 00:26:56 | 显示全部楼层 |阅读模式
没有出口的海 Sea.Without.Exit.2006.JAPANESE.1080p.BluRay.x264.DTS-iKiW 14.51GB-1.png

译  名 没有出口的海 / Sea Without Exit
片  名 出口のない海
年  代 2006
产  地 日本
类  别 剧情 / 战争
语  言 日语
上映日期 2006-09-16(日本)
IMDb评分  6.4/10 from 120 users
IMDb链接  https://www.imdb.com/title/tt0807747
豆瓣评分 6.8/10 from 526 users
豆瓣链接 https://movie.douban.com/subject/1798313/
片  长 121分钟
导  演 佐佐部清 Kiyoshi Sasabe
编  剧 山田洋次 Y?ji Yamada / 富川元文 Motofumi Tomikawa / 横山秀夫 Hideo Yokoyama
主  演 市川海老藏 Ebiz? Ichikawa
       伊势谷友介 Y?suke Iseya
       上野树里 Juri Ueno
       盐谷瞬 Shun Shioya
       香川照之 Teruyuki Kagawa
       小手川裕子
       三浦友和 Tomokazu Miura


标  签 日本 | 二战 | 日本电影 | 上野树里 | 战争 | 香川照之 | 三浦友和 | 伊勢谷友介

简  介  

  并木浩二(市川海老藏 饰)是一位天赋异禀的棒球运带动,已经夺得过甲子园优越投手的无尚光荣。但是,麋集的练习令他的肩部受伤,无法之下浩二只能离别了球场。承平洋战争爆发了,浩二和朋友们一同离别了亲人,奔赴火线,做好了为国牺牲的预备。
  战争一日一日的延续着,唯一没法改变的,是日本渐渐构成的败局。但是日本水兵却不愿意就此认输,而是发现出了名为“回天”的载人鱼雷,这类鱼雷需要牺牲驾驶员的人命来调换精准的定位和强大的破坏性,满腔热血的并木保命加入了这一自杀行动。终究,履利用命的那天到来了,并木和战友们一同踏上了有去无回的旅途。
  1. Video
  2. ID                                       : 1
  3. Format                                   : AVC
  4. Format/Info                              : Advanced Video Codec
  5. Format profile                           : [email protected]
  6. Format settings                          : CABAC / 4 Ref Frames
  7. Format settings, CABAC                   : Yes
  8. Format settings, Reference frames        : 4 frames
  9. Codec ID                                 : V_MPEG4/ISO/AVC
  10. Duration                                 : 2 h 1 min
  11. Bit rate                                 : 15.5 Mb/s
  12. Width                                    : 1 920 pixels
  13. Height                                   : 1 036 pixels
  14. Display aspect ratio                     : 1.85:1
  15. Frame rate mode                          : Constant
  16. Frame rate                               : 23.976 (24000/1001) FPS
  17. Color space                              : YUV
  18. Chroma subsampling                       : 4:2:0
  19. Bit depth                                : 8 bits
  20. Scan type                                : Progressive
  21. Bits/(Pixel*Frame)                       : 0.326
  22. Stream size                              : 13.2 GiB (91%)
  23. Writing library                          : x264 core 129 r2245+704+36 8e61944 tMod+MixAQ [[email protected]:2:0 X86_64]
  24. Encoding settings                        : cabac=1 / ref=4 / deblock=1:-3:-3 / analyse=0x3:0x133 / me=umh / subme=11 / psy=1 / fade_compensate=0.00 / psy_rd=1.05:0.10 / mixed_ref=1 / me_range=64 / chroma_me=1 / trellis=2 / 8x8dct=1 / cqm=0 / deadzone=21,11 / fast_pskip=0 / chroma_qp_offset=-3 / threads=18 / lookahead_threads=3 / sliced_threads=0 / nr=0 / decimate=0 / interlaced=0 / bluray_compat=0 / constrained_intra=0 / fgo=0 / bframes=10 / b_pyramid=2 / b_adapt=2 / b_bias=0 / direct=3 / weightb=1 / open_gop=0 / weightp=2 / keyint=250 / keyint_min=23 / scenecut=40 / intra_refresh=0 / rc_lookahead=80 / rc=2pass / mbtree=1 / bitrate=15548 / ratetol=1.0 / qcomp=0.75 / qpmin=0 / qpmax=69 / qpstep=4 / cplxblur=20.0 / qblur=0.5 / ip_ratio=1.40 / aq=3 / aq-strength=0.85 / aq-sensitivity=10.00 / aq-ifactor=1.00 / aq-pfactor=1.00 / aq-bfactor=1.00 / aq2=0
  25. Language                                 : Japanese
  26. Default                                  : Yes
  27. Forced                                   : No
  28. Color range                              : Limited
  29. Matrix coefficients                      : BT.709

  30. Audio
  31. ID                                       : 2
  32. Format                                   : DTS
  33. Format/Info                              : Digital Theater Systems
  34. Codec ID                                 : A_DTS
  35. Duration                                 : 2 h 1 min
  36. Bit rate mode                            : Constant
  37. Bit rate                                 : 1 509 kb/s
  38. Channel(s)                               : 6 channels
  39. Channel layout                           : C L R Ls Rs LFE
  40. Sampling rate                            : 48.0 kHz
  41. Frame rate                               : 93.750 FPS (512 SPF)
  42. Bit depth                                : 24 bits
  43. Compression mode                         : Lossy
  44. Stream size                              : 1.28 GiB (9%)
  45. Language                                 : Japanese
  46. Default                                  : Yes
  47. Forced                                   : No

  48. Text
  49. ID                                       : 3
  50. Format                                   : UTF-8
  51. Codec ID                                 : S_TEXT/UTF8
  52. Codec ID/Info                            : UTF-8 Plain Text
  53. Duration                                 : 2 h 0 min
  54. Bit rate                                 : 51 b/s
  55. Count of elements                        : 1298
  56. Stream size                              : 45.8 KiB (0%)
  57. Language                                 : English
  58. Default                                  : Yes
  59. Forced                                   : No

  60. Menu
  61. 00:00:00.000                             : en:00:00:00.000
  62. 00:08:57.620                             : en:00:08:57.620
  63. 00:18:48.377                             : en:00:18:48.377
  64. 00:28:42.137                             : en:00:28:42.137
  65. 00:40:03.776                             : en:00:40:03.776
  66. 00:54:53.081                             : en:00:54:53.081
  67. 01:06:09.924                             : en:01:06:09.924
  68. 01:17:28.894                             : en:01:17:28.894
  69. 01:30:32.051                             : en:01:30:32.051
  70. 01:41:07.352                             : en:01:41:07.352
  71. 01:46:02.689                             : en:01:46:02.689
  72. 01:54:25.775                             : en:01:54:25.775
  73. 01:57:01.472                             : en:01:57:01.472
复制代码

没有出口的海 Sea.Without.Exit.2006.JAPANESE.1080p.BluRay.x264.DTS-iKiW 14.51GB-2.png 没有出口的海 Sea.Without.Exit.2006.JAPANESE.1080p.BluRay.x264.DTS-iKiW 14.51GB-3.png 没有出口的海 Sea.Without.Exit.2006.JAPANESE.1080p.BluRay.x264.DTS-iKiW 14.51GB-4.png






回复

使用道具 举报

懒得打字嘛,点击右侧快捷回复 【右侧内容,后台自定义】
您需要登录后才可以回帖 登录 | 立即加入

本版积分规则

Archiver|小黑屋| 蓝光电影网 |网站地图

Copyright © 2021 Comsenz Inc. Powered by 蓝光电影网

蓝光电影网

本站内容由用户自主分享和转载自互联网,转载目的在于传递更多信息,并不代表本网赞同其观点和对其真实性负责。

如有侵权、违反国家法律政策行为,请联系我们,我们会第一时间及时清除和处理!

举报反馈邮箱:[email protected]

快速回复 返回顶部 返回列表