找回密码

蓝光电影网

查看: 724|回复: 4

[悬疑] 星笼之海/星笼之海 侦探御手洗的事件簿 Detective.Mitarais.Casebook.The.Clockwork.Current.2016.JAPANESE.1080p.BluRay.x264.DTS-iKiW 8.50GB

[复制链接]
蓝光币
1084
发表于 2020-2-1 00:35:59 | 显示全部楼层 |阅读模式
星笼之海/星笼之海 侦察御手洗的事务簿 Detective.Mitarais.Casebook.The.Clockwork.Current.2016.JAPANESE.1080p.BluRay.x264.DTS-iKiW 8.50GB-1.png

译  名 星笼之海 / 星笼之海 侦察御手洗的事务簿
片  名 星籠の海 探偵ミタライの事务簿
年  代 2016
产  地 日本
类  别 悬疑 / 犯罪
语  言 日语
上映日期 2016-06-04(日本) / 2016-09-23(中国台湾)
IMDb评分  5.2/10 from 66 users
IMDb链接  https://www.imdb.com/title/tt4657280
豆瓣评分 5.3/10 from 2348 users
豆瓣链接 https://movie.douban.com/subject/26311976/
片  长 107分钟
导  演 和泉圣治 Seiji Izumi
编  剧 岛田庄司 Sōji Shimada / 中西健二 Kenji Nakanishi / 长谷川康夫 Yasuo Hasegawa
主  演 玉木宏 Hiroshi Tamaki
       广濑爱丽丝 Alice Hirose
       石田光 Hikari Ishida
       小仓久宽 Hisahiro Ogura
       要润 Jun Kaname
       谷村美月 Mitsuki Tanimura
       吉田荣作 Eisaku Yoshida
       利昂·谢卜利·艾哈迈德 Leon Shibli Ahmad


标  签 日本 | 推理 | 悬疑 | 2016 | 犯罪 | 小说改编 | 玉木宏HiroshiTamaki | 2016上海国际电影节

简  介  

  短短半年时候,濑户内海的小岛便漂来了6具知名男尸,这一系列奥秘事务激发人们的普遍猜测,小岛更被冠以“死尸岛”这一可怕名字。英俊帅气且具有天赋脑筋的科学家兼私人侦察御手洗洁(玉木宏 饰)从编辑小川美雪(广濑爱丽丝 饰)口入耳到了死尸岛的传闻,由此勾起了他无穷的猎奇心,立即出发飞赴濑户内海。
  经过一番观察,御手洗很快判明6具尸身全数来自广岛县的福山市。固然知名尸身并未就此停止出现,未几又有一位外籍女子暴死的尸身被人发现,此外在某瀑布还有男女遭人拘禁。几宗案件有着千丝万缕的联系,御手洗甚至追溯至战国和江户时代之交所发生的严重事务。扑朔迷离的线索所裹挟的真相逐步浮出水面……
  1. Video
  2. ID                                       : 1
  3. Format                                   : AVC
  4. Format/Info                              : Advanced Video Codec
  5. Format profile                           : [email protected]
  6. Format settings                          : CABAC / 5 Ref Frames
  7. Format settings, CABAC                   : Yes
  8. Format settings, Reference frames        : 5 frames
  9. Codec ID                                 : V_MPEG4/ISO/AVC
  10. Duration                                 : 1 h 47 min
  11. Bit rate                                 : 9 810 kb/s
  12. Width                                    : 1 920 pixels
  13. Height                                   : 804 pixels
  14. Display aspect ratio                     : 2.40:1
  15. Frame rate mode                          : Constant
  16. Frame rate                               : 23.976 (24000/1001) FPS
  17. Color space                              : YUV
  18. Chroma subsampling                       : 4:2:0
  19. Bit depth                                : 8 bits
  20. Scan type                                : Progressive
  21. Bits/(Pixel*Frame)                       : 0.265
  22. Stream size                              : 7.36 GiB (87%)
  23. Writing library                          : x264 core 129 r2245+704+36 8e61944 tMod+MixAQ [[email protected]:2:0 X86_64]
  24. Encoding settings                        : cabac=1 / ref=5 / deblock=1:-3:-3 / analyse=0x3:0x133 / me=umh / subme=11 / psy=1 / fade_compensate=0.00 / psy_rd=1.05:0.10 / mixed_ref=1 / me_range=64 / chroma_me=1 / trellis=2 / 8x8dct=1 / cqm=0 / deadzone=21,11 / fast_pskip=0 / chroma_qp_offset=-3 / threads=18 / lookahead_threads=3 / sliced_threads=0 / nr=0 / decimate=0 / interlaced=0 / bluray_compat=0 / constrained_intra=0 / fgo=0 / bframes=10 / b_pyramid=2 / b_adapt=2 / b_bias=0 / direct=3 / weightb=1 / open_gop=0 / weightp=2 / keyint=250 / keyint_min=23 / scenecut=40 / intra_refresh=0 / rc_lookahead=80 / rc=2pass / mbtree=1 / bitrate=9810 / ratetol=1.0 / qcomp=0.70 / qpmin=0 / qpmax=69 / qpstep=4 / cplxblur=20.0 / qblur=0.5 / ip_ratio=1.40 / aq=1 / aq-strength=0.85 / aq-sensitivity=10.00 / aq-ifactor=1.00 / aq-pfactor=1.00 / aq-bfactor=1.00 / aq2=0
  25. Language                                 : Japanese
  26. Default                                  : Yes
  27. Forced                                   : No
  28. Color range                              : Limited
  29. Matrix coefficients                      : BT.709

  30. Audio
  31. ID                                       : 2
  32. Format                                   : DTS
  33. Format/Info                              : Digital Theater Systems
  34. Codec ID                                 : A_DTS
  35. Duration                                 : 1 h 47 min
  36. Bit rate mode                            : Constant
  37. Bit rate                                 : 1 509 kb/s
  38. Channel(s)                               : 6 channels
  39. Channel layout                           : C L R Ls Rs LFE
  40. Sampling rate                            : 48.0 kHz
  41. Frame rate                               : 93.750 FPS (512 SPF)
  42. Bit depth                                : 16 bits
  43. Compression mode                         : Lossy
  44. Stream size                              : 1.13 GiB (13%)
  45. Language                                 : Japanese
  46. Default                                  : Yes
  47. Forced                                   : No

  48. Text #1
  49. ID                                       : 3
  50. Format                                   : UTF-8
  51. Codec ID                                 : S_TEXT/UTF8
  52. Codec ID/Info                            : UTF-8 Plain Text
  53. Duration                                 : 1 h 42 min
  54. Bit rate                                 : 49 b/s
  55. Count of elements                        : 1182
  56. Stream size                              : 36.8 KiB (0%)
  57. Language                                 : English
  58. Default                                  : Yes
  59. Forced                                   : No

  60. Text #2
  61. ID                                       : 4
  62. Format                                   : UTF-8
  63. Codec ID                                 : S_TEXT/UTF8
  64. Codec ID/Info                            : UTF-8 Plain Text
  65. Duration                                 : 1 h 42 min
  66. Bit rate                                 : 44 b/s
  67. Count of elements                        : 1189
  68. Stream size                              : 33.9 KiB (0%)
  69. Title                                    : Simplified
  70. Language                                 : Chinese
  71. Default                                  : No
  72. Forced                                   : No

  73. Text #3
  74. ID                                       : 5
  75. Format                                   : UTF-8
  76. Codec ID                                 : S_TEXT/UTF8
  77. Codec ID/Info                            : UTF-8 Plain Text
  78. Duration                                 : 1 h 42 min
  79. Bit rate                                 : 44 b/s
  80. Count of elements                        : 1189
  81. Stream size                              : 33.9 KiB (0%)
  82. Title                                    : Traditional
  83. Language                                 : Chinese
  84. Default                                  : No
  85. Forced                                   : No

  86. Menu
  87. 00:00:00.000                             : en:00:00:00.000
  88. 00:09:55.595                             : en:00:09:55.595
  89. 00:23:27.322                             : en:00:23:27.322
  90. 00:31:35.768                             : en:00:31:35.768
  91. 00:40:28.884                             : en:00:40:28.884
  92. 00:51:55.737                             : en:00:51:55.737
  93. 00:58:29.631                             : en:00:58:29.631
  94. 01:08:23.724                             : en:01:08:23.724
  95. 01:16:45.934                             : en:01:16:45.934
  96. 01:28:08.366                             : en:01:28:08.366
  97. 01:40:35.863                             : en:01:40:35.863
复制代码

星笼之海/星笼之海 侦察御手洗的事务簿 Detective.Mitarais.Casebook.The.Clockwork.Current.2016.JAPANESE.1080p.BluRay.x264.DTS-iKiW 8.50GB-1.png 星笼之海/星笼之海 侦察御手洗的事务簿 Detective.Mitarais.Casebook.The.Clockwork.Current.2016.JAPANESE.1080p.BluRay.x264.DTS-iKiW 8.50GB-3.png 星笼之海/星笼之海 侦察御手洗的事务簿 Detective.Mitarais.Casebook.The.Clockwork.Current.2016.JAPANESE.1080p.BluRay.x264.DTS-iKiW 8.50GB-4.png






回复

使用道具 举报

懒得打字嘛,点击右侧快捷回复 【右侧内容,后台自定义】
您需要登录后才可以回帖 登录 | 立即加入

本版积分规则

Archiver|小黑屋| 蓝光电影网 |网站地图

Copyright © 2021 Comsenz Inc. Powered by 蓝光电影网

蓝光电影网

本站内容由用户自主分享和转载自互联网,转载目的在于传递更多信息,并不代表本网赞同其观点和对其真实性负责。

如有侵权、违反国家法律政策行为,请联系我们,我们会第一时间及时清除和处理!

举报反馈邮箱:[email protected]

快速回复 返回顶部 返回列表