找回密码

蓝光电影网

查看: 480|回复: 2

[剧情] 過界 Bends.2013.CHINESE.1080p.BluRay.x264-CHD 7.49GB

[复制链接]
蓝光币
1022
发表于 2020-2-1 00:37:04 | 显示全部楼层 |阅读模式
過界 Bends.2013.CHINESE.1080p.BluRay.x264-CHD 7.49GB-1.png

译  名 过界男女 / Bends
片  名 過界
年  代 2013
产  地 中国香港
类  别 剧情 / 恋爱
语  言 粤语 / 汉语普通话 / 英语
上映日期 2013-05-18(戛纳电影节) / 2013-11-21(中国香港) / 2014-02-14(中国大陆)
IMDb评分  6.1/10 from 235 users
IMDb链接  https://www.imdb.com/title/tt2852460
豆瓣评分 5.7/10 from 12516 users
豆瓣链接 https://movie.douban.com/subject/19944289/
片  长 94分钟(中国大陆)
导  演 刘韵文 Flora Lau
编  剧 刘韵文 Flora Lau
主  演 刘嘉玲 Carina Lau
       陈坤 Kun Chen
       田原 Yuan Tian
       车婉婉 Stephanie Che
       郑丹瑞 Lawrence Cheng


标  签 陈坤 | 香港 | 刘嘉玲 | 香港电影 | 剧情 | 2013 | 杜可风 | 刘韵文

简  介  

  香港人辉(陈坤 饰)给一个阔太李太当司机,他娶了一个深圳女人婷(田原 饰),两人已经有了一个女孩,可是婷又怀上了二胎,为了不用交超生罚款,辉想让婷去香港产子。他奔走在各个医院,却被奉告已经没有空的床位,而找中介公司却要花费20万元的巨款,辉尝试了各类方式......
  辉的老板李太(刘嘉玲 饰)生活在上层社会中,老公务业有成,女儿在国外念书,生活无忧。可是有一天,她的丈夫Leo不知所踪,Leo名下的账户都被解冻了。为了保持生存,李太只能变卖股票和家里各类值钱的工具,来保持概况的风光生活......
  辉终究等到了机遇,李太让他开车载她去深圳处事,而在返来的路上,发生了一件让李太始料未及的工作......

获奖情况  

  第66届戛纳电影节(2013)
  金摄影机奖(导演童贞作奖)(提名) 刘韵文
  一种关注单元 一种关注大奖(提名) 刘韵文

  第50届台北金马影展(2013)
  金马奖 最好原创配乐(提名) 庄柏信
  1. Video
  2. ID                                       : 1
  3. Format                                   : AVC
  4. Format/Info                              : Advanced Video Codec
  5. Format profile                           : [email protected]
  6. Format settings                          : CABAC / 4 Ref Frames
  7. Format settings, CABAC                   : Yes
  8. Format settings, Reference frames        : 4 frames
  9. Codec ID                                 : V_MPEG4/ISO/AVC
  10. Duration                                 : 1 h 35 min
  11. Bit rate                                 : 10.6 Mb/s
  12. Width                                    : 1 920 pixels
  13. Height                                   : 1 034 pixels
  14. Display aspect ratio                     : 1.85:1
  15. Frame rate mode                          : Constant
  16. Frame rate                               : 24.000 FPS
  17. Color space                              : YUV
  18. Chroma subsampling                       : 4:2:0
  19. Bit depth                                : 8 bits
  20. Scan type                                : Progressive
  21. Bits/(Pixel*Frame)                       : 0.223
  22. Stream size                              : 7.06 GiB (94%)
  23. Writing library                          : x264 core 138 r2356 a1d3d17
  24. Encoding settings                        : cabac=1 / ref=4 / deblock=1:-3:-3 / analyse=0x3:0x113 / me=umh / subme=11 / psy=1 / psy_rd=1.00:0.05 / mixed_ref=1 / me_range=32 / chroma_me=1 / trellis=2 / 8x8dct=1 / cqm=0 / deadzone=21,11 / fast_pskip=0 / chroma_qp_offset=-2 / threads=18 / lookahead_threads=1 / sliced_threads=0 / nr=0 / decimate=1 / interlaced=0 / bluray_compat=0 / constrained_intra=0 / bframes=5 / b_pyramid=2 / b_adapt=2 / b_bias=0 / direct=3 / weightb=1 / open_gop=0 / weightp=2 / keyint=250 / keyint_min=24 / scenecut=40 / intra_refresh=0 / rc=2pass / mbtree=0 / bitrate=10612 / ratetol=1.0 / qcomp=0.70 / qpmin=0 / qpmax=69 / qpstep=4 / cplxblur=20.0 / qblur=0.5 / ip_ratio=1.40 / pb_ratio=1.30 / aq=2:0.90
  25. Language                                 : English
  26. Default                                  : Yes
  27. Forced                                   : No

  28. Audio
  29. ID                                       : 2
  30. Format                                   : AC-3
  31. Format/Info                              : Audio Coding 3
  32. Commercial name                          : Dolby Digital
  33. Codec ID                                 : A_AC3
  34. Duration                                 : 1 h 35 min
  35. Bit rate mode                            : Constant
  36. Bit rate                                 : 640 kb/s
  37. Channel(s)                               : 6 channels
  38. Channel layout                           : L R C LFE Ls Rs
  39. Sampling rate                            : 48.0 kHz
  40. Frame rate                               : 31.250 FPS (1536 SPF)
  41. Bit depth                                : 16 bits
  42. Compression mode                         : Lossy
  43. Stream size                              : 437 MiB (6%)
  44. Language                                 : Chinese
  45. Service kind                             : Complete Main
  46. Default                                  : No
  47. Forced                                   : No

  48. Text
  49. ID                                       : 3
  50. Format                                   : UTF-8
  51. Codec ID                                 : S_TEXT/UTF8
  52. Codec ID/Info                            : UTF-8 Plain Text
  53. Duration                                 : 1 h 27 min
  54. Bit rate                                 : 22 b/s
  55. Count of elements                        : 566
  56. Stream size                              : 14.6 KiB (0%)
  57. Language : English
  58. Default                                  : Yes
  59. Forced                                   : No
复制代码

過界 Bends.2013.CHINESE.1080p.BluRay.x264-CHD 7.49GB-2.png 過界 Bends.2013.CHINESE.1080p.BluRay.x264-CHD 7.49GB-3.png 過界 Bends.2013.CHINESE.1080p.BluRay.x264-CHD 7.49GB-1.png






回复

使用道具 举报

蓝光币
758
发表于 2020-2-1 09:13:46 | 显示全部楼层
谢谢楼主无私分享,
回复 支持 反对

使用道具 举报

懒得打字嘛,点击右侧快捷回复 【右侧内容,后台自定义】
您需要登录后才可以回帖 登录 | 立即加入

本版积分规则

Archiver|小黑屋| 蓝光电影网 |网站地图

Copyright © 2021 Comsenz Inc. Powered by 蓝光电影网

蓝光电影网

本站内容由用户自主分享和转载自互联网,转载目的在于传递更多信息,并不代表本网赞同其观点和对其真实性负责。

如有侵权、违反国家法律政策行为,请联系我们,我们会第一时间及时清除和处理!

举报反馈邮箱:[email protected]

快速回复 返回顶部 返回列表