找回密码

蓝光电影网

查看: 1228|回复: 2

[动作] 虎胆杀机/创伤中心 Trauma.Center.2019.1080p.BluRay.x264.DTS-HD.MA.5.1-FGT 7.67GB

[复制链接]
蓝光币
1022
发表于 2020-2-1 00:44:19 | 显示全部楼层 |阅读模式
虎胆杀机/创伤中心 Trauma.Center.2019.1080p.BluRay.x264.DTS-HD.MA.5.1-FGT 7.67GB-1.png

译  名 虎胆杀机 / 创伤中心
片  名 Trauma Center
年  代 2019
产  地 美国
类  别 行动 / 惊悚
语  言 英语 / 西班牙语
上映日期 2019-12-06(美国)
IMDb评分  5.0/10 from 2931 users
IMDb链接  https://www.imdb.com/title/tt9625664
豆瓣评分 4.1/10 from 651 users
豆瓣链接 https://movie.douban.com/subject/30447648/
片  长 87分钟
导  演 马特·伊斯坎达里 Matt Eskandari
编  剧 Paul Da Silva
主  演 布鲁斯·威利斯 Bruce Willis
       妮基·韦兰 Nicky Whelan
       斯蒂夫·古根伯格 Steve Guttenberg
       蒂托·奥蒂兹 Tito Ortiz
       特夏斯·巴特尔 Texas Battle
       罗曼·米蒂齐扬 Roman Mitichyan
       泰勒·乔恩·奥尔森 Tyler Jon Olson
       让·皮埃尔·普拉茨 Jean Pierre Prats
       Heather Johansen
       Lynn Gilmartin
       David B. Meadows
       Catherine Davis
       Sergio Rizzuto
       Jesse Pruett
       Carroll 'Pinky' Duwart III
       Jaime Irizarry


标  签 行动 | 犯罪 | 布鲁斯威利斯 | 美国 | 烂片 | 2019 | 惊悚 | 悬疑

简  介  

  一伙悍匪趁夜攻击了一位年轻女子地点的医院来寻觅他们的犯罪证据——残留在女子腿部的一颗子弹。一位受命庇护女子的老差人成了此时女子免遭杀戮的唯一希望。
  1. Video
  2. ID                                       : 1
  3. Format                                   : AVC
  4. Format/Info                              : Advanced Video Codec
  5. Format profile                           : [email protected]
  6. Format settings                          : CABAC / 5 Ref Frames
  7. Format settings, CABAC                   : Yes
  8. Format settings, Reference frames        : 5 frames
  9. Codec ID                                 : V_MPEG4/ISO/AVC
  10. Duration                                 : 1 h 27 min
  11. Bit rate                                 : 9 286 kb/s
  12. Width                                    : 1 920 pixels
  13. Height                                   : 808 pixels
  14. Display aspect ratio                     : 2.40:1
  15. Frame rate mode                          : Constant
  16. Frame rate                               : 23.976 (24000/1001) FPS
  17. Color space                              : YUV
  18. Chroma subsampling                       : 4:2:0
  19. Bit depth                                : 8 bits
  20. Scan type                                : Progressive
  21. Bits/(Pixel*Frame)                       : 0.250
  22. Stream size                              : 5.64 GiB (73%)
  23. Title                                    : Trauma.Center.2019.1080p.BluRay.x264.DTS-HD.MA.5.1-FGT
  24. Writing library                          : x264 core 159 r2991 1771b55
  25. Encoding settings                        : cabac=1 / ref=5 / deblock=1:-3:-3 / analyse=0x3:0x133 / me=umh / subme=7 / psy=1 / psy_rd=1.00:0.00 / mixed_ref=1 / me_range=16 / chroma_me=1 / trellis=2 / 8x8dct=1 / cqm=0 / deadzone=21,11 / fast_pskip=1 / chroma_qp_offset=-2 / threads=16 / lookahead_threads=2 / sliced_threads=0 / nr=0 / decimate=1 / interlaced=0 / bluray_compat=0 / constrained_intra=0 / bframes=3 / b_pyramid=2 / b_adapt=2 / b_bias=0 / direct=3 / weightb=1 / open_gop=0 / weightp=2 / keyint=250 / keyint_min=23 / scenecut=40 / intra_refresh=0 / rc_lookahead=50 / rc=2pass / mbtree=1 / bitrate=9286 / ratetol=1.0 / qcomp=0.60 / qpmin=0 / qpmax=69 / qpstep=4 / cplxblur=20.0 / qblur=0.5 / ip_ratio=1.40 / aq=1:1.00
  26. Language                                 : English
  27. Default                                  : Yes
  28. Forced                                   : No
  29. Color range                              : Limited
  30. Matrix coefficients                      : BT.709

  31. Audio
  32. ID                                       : 2
  33. Format                                   : DTS XLL
  34. Format/Info                              : Digital Theater Systems
  35. Commercial name                          : DTS-HD Master Audio
  36. Codec ID                                 : A_DTS
  37. Duration                                 : 1 h 27 min
  38. Bit rate mode                            : Variable
  39. Bit rate                                 : 3 322 kb/s
  40. Channel(s)                               : 6 channels
  41. Channel layout                           : C L R Ls Rs LFE
  42. Sampling rate                            : 48.0 kHz
  43. Frame rate                               : 93.750 FPS (512 SPF)
  44. Bit depth                                : 24 bits
  45. Compression mode                         : Lossless
  46. Stream size                              : 2.02 GiB (26%)
  47. Title                                    : Trauma.Center.2019.1080p.BluRay.x264.DTS-HD.MA.5.1-FGT
  48. Language                                 : English
  49. Default                                  : Yes
  50. Forced                                   : No

  51. Text #1
  52. ID                                       : 3
  53. Format                                   : UTF-8
  54. Codec ID                                 : S_TEXT/UTF8
  55. Codec ID/Info                            : UTF-8 Plain Text
  56. Duration                                 : 1 h 19 min
  57. Bit rate                                 : 39 b/s
  58. Count of elements                        : 748
  59. Stream size                              : 22.7 KiB (0%)
  60. Title                                    : English-SRT
  61. Language                                 : English
  62. Default                                  : Yes
  63. Forced                                   : No

  64. Text #2
  65. ID                                       : 4
  66. Format                                   : PGS
  67. Muxing mode                              : zlib
  68. Codec ID                                 : S_HDMV/PGS
  69. Codec ID/Info                            : Picture based subtitle format used on BDs/HD-DVDs
  70. Duration                                 : 1 h 19 min
  71. Bit rate                                 : 28.0 kb/s
  72. Count of elements                        : 1756
  73. Stream size                              : 15.9 MiB (0%)
  74. Title                                    : English-PGS
  75. Language                                 : English
  76. Default                                  : No
  77. Forced                                   : No

  78. Text #3
  79. ID                                       : 5
  80. Format                                   : PGS
  81. Muxing mode                              : zlib
  82. Codec ID                                 : S_HDMV/PGS
  83. Codec ID/Info                            : Picture based subtitle format used on BDs/HD-DVDs
  84. Duration                                 : 1 h 19 min
  85. Bit rate                                 : 23.1 kb/s
  86. Count of elements                        : 1494
  87. Stream size                              : 13.1 MiB (0%)
  88. Title                                    : Spanish-PGS
  89. Language                                 : Spanish
  90. Default                                  : No
  91. Forced                                   : No

  92. Menu
  93. 00:00:00.000                             : en:Chapter 01
  94. 00:02:45.999                             : en:Chapter 02
  95. 00:08:48.611                             : en:Chapter 03
  96. 00:14:10.683                             : en:Chapter 04
  97. 00:17:57.409                             : en:Chapter 05
  98. 00:22:01.945                             : en:Chapter 06
  99. 00:25:46.795                             : en:Chapter 07
  100. 00:28:08.895                             : en:Chapter 08
  101. 00:35:48.104                             : en:Chapter 09
  102. 00:43:25.519                             : en:Chapter 10
  103. 00:47:59.585                             : en:Chapter 11
  104. 00:51:00.432                             : en:Chapter 12
  105. 00:57:30.989                             : en:Chapter 13
  106. 01:07:26.250                             : en:Chapter 14
  107. 01:12:26.467                             : en:Chapter 15
  108. 01:18:04.805                             : en:Chapter 16
复制代码

虎胆杀机/创伤中心 Trauma.Center.2019.1080p.BluRay.x264.DTS-HD.MA.5.1-FGT 7.67GB-2.png 虎胆杀机/创伤中心 Trauma.Center.2019.1080p.BluRay.x264.DTS-HD.MA.5.1-FGT 7.67GB-3.png 虎胆杀机/创伤中心 Trauma.Center.2019.1080p.BluRay.x264.DTS-HD.MA.5.1-FGT 7.67GB-4.png






回复

使用道具 举报

蓝光币
746
发表于 2020-2-1 09:07:07 | 显示全部楼层
谢谢楼主无私分享。
回复 支持 反对

使用道具 举报

蓝光币
115
发表于 2020-2-1 20:55:02 | 显示全部楼层
楼主发贴辛苦了,谢谢楼主分享!我觉得蓝光电影网是注册对了!
回复 支持 反对

使用道具 举报

懒得打字嘛,点击右侧快捷回复 【右侧内容,后台自定义】
您需要登录后才可以回帖 登录 | 立即加入

本版积分规则

Archiver|小黑屋| 蓝光电影网 |网站地图

Copyright © 2021 Comsenz Inc. Powered by 蓝光电影网

蓝光电影网

本站内容由用户自主分享和转载自互联网,转载目的在于传递更多信息,并不代表本网赞同其观点和对其真实性负责。

如有侵权、违反国家法律政策行为,请联系我们,我们会第一时间及时清除和处理!

举报反馈邮箱:[email protected]

快速回复 返回顶部 返回列表