找回密码

蓝光电影网

查看: 431|回复: 1

[喜剧] 去年圣诞/去年圣诞节 Last.Christmas.2019.1080p.BluRay.x264.DTS-FGT 9.35GB

[复制链接]
蓝光币
1022
发表于 2020-2-1 00:50:25 | 显示全部楼层 |阅读模式
客岁圣诞/客岁圣诞节 Last.Christmas.2019.1080p.BluRay.x264.DTS-FGT 9.35GB-1.png

译  名 客岁圣诞 / 客岁圣诞节(台) / 旧年圣诞好恋嚟(港) / 爱在圣诞
片  名 Last Christmas
年  代 2019
产  地 英国 / 美国
类  别 笑剧 / 恋爱
语  言 英语
上映日期 2019-11-08(美国)
IMDb评分  6.5/10 from 22778 users
IMDb链接  https://www.imdb.com/title/tt8623904
豆瓣评分 6.4/10 from 2204 users
豆瓣链接 https://movie.douban.com/subject/30259221/
片  长 102分钟
导  演 保罗·费格 Paul Feig
编  剧 艾玛·汤普森 Emma Thompson / 布里尼·金明斯 Bryony Kimmings / 格雷·怀斯 Greg Wise
主  演 艾米莉亚·克拉克 Emilia Clarke
       亨利·戈尔丁 Henry Golding
       杨紫琼 Michelle Yeoh
       艾玛·汤普森 Emma Thompson
       丽贝卡·鲁特 Rebecca Root
       莉迪亚·伦纳德 Lydia Leonard
       海伦娜·福尔摩斯 Helena Holmes
       纳西尔·贾玛 Nasir Jama
       彼得·米金特 Peter Mygind
       大卫·穆梅尼 David Mumeni
       里图·阿亚 Ritu Arya
       卡罗尔·斯蒂尔 Karol Steele
       帕蒂·卢波恩 Patti LuPone


标  签 恋爱 | 英国 | 笑剧 | 圣诞 | 温情 | 2019 | 美国 | Christmas

简  介  

  一事无成的凯特(艾米莉亚·克拉克 Emilia Clarke 饰)在伦敦浑浑噩噩地过着日子,她做出的连续串糟糕决议致使恶运总是陪伴着鞋子上发出的铃声跬步不离地跟从着她,她只能打扮成圣诞老人的小精灵,在一间全年无休的圣诞饰品店当伙计。把稳地善良的汤姆(亨利·戈尔丁 Henry Golding 饰)闯入了凯特的生活,帮助她克服了很多障碍与难关,一切都似乎美好得有点不实在。伦敦在圣诞佳节时代转酿成一座童话般的梦幻王国,这两个看似八棍子撂不着的人能否结成良缘?偶然辰,你得天真烂漫、凝听自己心里的声音……而且要具有强大的信心。
  1. Video
  2. ID                                       : 1
  3. Format                                   : AVC
  4. Format/Info                              : Advanced Video Codec
  5. Format profile                           : [email protected]
  6. Format settings                          : CABAC / 4 Ref Frames
  7. Format settings, CABAC                   : Yes
  8. Format settings, Reference frames        : 4 frames
  9. Codec ID                                 : V_MPEG4/ISO/AVC
  10. Duration                                 : 1 h 42 min
  11. Bit rate                                 : 11.5 Mb/s
  12. Width                                    : 1 920 pixels
  13. Height                                   : 960 pixels
  14. Display aspect ratio                     : 2.000
  15. Frame rate mode                          : Constant
  16. Frame rate                               : 23.976 (24000/1001) FPS
  17. Color space                              : YUV
  18. Chroma subsampling                       : 4:2:0
  19. Bit depth                                : 8 bits
  20. Scan type                                : Progressive
  21. Bits/(Pixel*Frame)                       : 0.260
  22. Stream size                              : 8.26 GiB (88%)
  23. Title                                    : Last.Christmas.2019.1080p.BluRay.x264.DTS-FGT
  24. Writing library                          : x264 core 148 r2748 97eaef2
  25. Encoding settings                        : cabac=1 / ref=4 / deblock=1:-2:-2 / analyse=0x3:0x113 / me=umh / subme=9 / psy=1 / psy_rd=1.00:0.15 / mixed_ref=1 / me_range=16 / chroma_me=1 / trellis=2 / 8x8dct=1 / cqm=0 / deadzone=21,11 / fast_pskip=1 / chroma_qp_offset=-3 / threads=48 / lookahead_threads=3 / sliced_threads=0 / nr=0 / decimate=1 / interlaced=0 / bluray_compat=0 / constrained_intra=0 / bframes=3 / b_pyramid=2 / b_adapt=1 / b_bias=0 / direct=3 / weightb=1 / open_gop=0 / weightp=2 / keyint=250 / keyint_min=25 / scenecut=40 / intra_refresh=0 / rc_lookahead=50 / rc=2pass / mbtree=1 / bitrate=11500 / ratetol=1.0 / qcomp=0.60 / qpmin=0 / qpmax=69 / qpstep=4 / cplxblur=20.0 / qblur=0.5 / vbv_maxrate=31250 / vbv_bufsize=31250 / nal_hrd=none / filler=0 / ip_ratio=1.40 / aq=1:1.00
  26. Language                                 : English
  27. Default                                  : Yes
  28. Forced                                   : No

  29. Audio
  30. ID                                       : 2
  31. Format                                   : DTS
  32. Format/Info                              : Digital Theater Systems
  33. Codec ID                                 : A_DTS
  34. Duration                                 : 1 h 42 min
  35. Bit rate mode                            : Constant
  36. Bit rate                                 : 1 509 kb/s
  37. Channel(s)                               : 6 channels
  38. Channel layout                           : C L R Ls Rs LFE
  39. Sampling rate                            : 48.0 kHz
  40. Frame rate                               : 93.750 FPS (512 SPF)
  41. Bit depth                                : 24 bits
  42. Compression mode                         : Lossy
  43. Stream size                              : 1.08 GiB (12%)
  44. Title                                    : Last.Christmas.2019.1080p.BluRay.x264.DTS-FGT
  45. Language                                 : English
  46. Default                                  : Yes
  47. Forced                                   : No

  48. Text
  49. ID                                       : 3
  50. Format                                   : UTF-8
  51. Codec ID                                 : S_TEXT/UTF8
  52. Codec ID/Info                            : UTF-8 Plain Text
  53. Duration                                 : 1 h 41 min
  54. Bit rate                                 : 76 b/s
  55. Count of elements                        : 1670
  56. Stream size                              : 56.8 KiB (0%)
  57. Language                                 : English
  58. Default                                  : Yes
  59. Forced                                   : No

  60. Menu
  61. 00:00:00.000                             : en:Chapter 01
  62. 00:05:48.389                             : en:Chapter 02
  63. 00:10:26.959                             : en:Chapter 03
  64. 00:16:47.006                             : en:Chapter 04
  65. 00:23:20.941                             : en:Chapter 05
  66. 00:26:15.448                             : en:Chapter 06
  67. 00:29:39.068                             : en:Chapter 07
  68. 00:36:00.366                             : en:Chapter 08
  69. 00:40:51.740                             : en:Chapter 09
  70. 00:45:30.978                             : en:Chapter 10
  71. 00:49:55.617                             : en:Chapter 11
  72. 00:52:26.768                             : en:Chapter 12
  73. 00:58:10.820                             : en:Chapter 13
  74. 01:05:48.444                             : en:Chapter 14
  75. 01:10:31.143                             : en:Chapter 15
  76. 01:13:50.592                             : en:Chapter 16
  77. 01:19:31.224                             : en:Chapter 17
  78. 01:24:23.516                             : en:Chapter 18
  79. 01:30:42.437                             : en:Chapter 19
  80. 01:37:41.730                             : en:Chapter 20
复制代码

客岁圣诞/客岁圣诞节 Last.Christmas.2019.1080p.BluRay.x264.DTS-FGT 9.35GB-2.png 客岁圣诞/客岁圣诞节 Last.Christmas.2019.1080p.BluRay.x264.DTS-FGT 9.35GB-3.png 客岁圣诞/客岁圣诞节 Last.Christmas.2019.1080p.BluRay.x264.DTS-FGT 9.35GB-4.png






回复

使用道具 举报

懒得打字嘛,点击右侧快捷回复 【右侧内容,后台自定义】
您需要登录后才可以回帖 登录 | 立即加入

本版积分规则

Archiver|小黑屋| 蓝光电影网 |网站地图

Copyright © 2021 Comsenz Inc. Powered by 蓝光电影网

蓝光电影网

本站内容由用户自主分享和转载自互联网,转载目的在于传递更多信息,并不代表本网赞同其观点和对其真实性负责。

如有侵权、违反国家法律政策行为,请联系我们,我们会第一时间及时清除和处理!

举报反馈邮箱:[email protected]

快速回复 返回顶部 返回列表