找回密码

蓝光电影网

查看: 613|回复: 1

[喜剧] 去年圣诞/去年圣诞节 Last.Christmas.2019.1080p.BluRay.REMUX.AVC.DTS-HD.MA.7.1-FGT 25.12GB

[复制链接]
蓝光币
1020
发表于 2020-2-1 14:03:27 | 显示全部楼层 |阅读模式
客岁圣诞/客岁圣诞节 Last.Christmas.2019.1080p.BluRay.REMUX.AVC.DTS-HD.MA.7.1-FGT 25.12GB-1.png

译  名 客岁圣诞 / 客岁圣诞节(台) / 旧年圣诞好恋嚟(港) / 爱在圣诞
片  名 Last Christmas
年  代 2019
产  地 英国 / 美国
类  别 笑剧 / 恋爱
语  言 英语
上映日期 2019-11-08(美国)
IMDb评分  6.5/10 from 22778 users
IMDb链接  https://www.imdb.com/title/tt8623904
豆瓣评分 6.4/10 from 2204 users
豆瓣链接 https://movie.douban.com/subject/30259221/
片  长 102分钟
导  演 保罗·费格 Paul Feig
编  剧 艾玛·汤普森 Emma Thompson / 布里尼·金明斯 Bryony Kimmings / 格雷·怀斯 Greg Wise
主  演 艾米莉亚·克拉克 Emilia Clarke
       亨利·戈尔丁 Henry Golding
       杨紫琼 Michelle Yeoh
       艾玛·汤普森 Emma Thompson
       丽贝卡·鲁特 Rebecca Root
       莉迪亚·伦纳德 Lydia Leonard
       海伦娜·福尔摩斯 Helena Holmes
       纳西尔·贾玛 Nasir Jama
       彼得·米金特 Peter Mygind
       大卫·穆梅尼 David Mumeni
       里图·阿亚 Ritu Arya
       卡罗尔·斯蒂尔 Karol Steele
       帕蒂·卢波恩 Patti LuPone


标  签 恋爱 | 英国 | 笑剧 | 圣诞 | 温情 | 2019 | 美国 | Christmas

简  介  

  一事无成的凯特(艾米莉亚·克拉克 Emilia Clarke 饰)在伦敦浑浑噩噩地过着日子,她做出的连续串糟糕决议致使恶运总是陪伴着鞋子上发出的铃声跬步不离地跟从着她,她只能打扮成圣诞老人的小精灵,在一间全年无休的圣诞饰品店当伙计。把稳地善良的汤姆(亨利·戈尔丁 Henry Golding 饰)闯入了凯特的生活,帮助她克服了很多障碍与难关,一切都似乎美好得有点不实在。伦敦在圣诞佳节时代转酿成一座童话般的梦幻王国,这两个看似八棍子撂不着的人能否结成良缘?偶然辰,你得天真烂漫、凝听自己心里的声音……而且要具有强大的信心。
  1. Video
  2. ID                                       : 1
  3. Format                                   : AVC
  4. Format/Info                              : Advanced Video Codec
  5. Format profile                           : [email protected]
  6. Format settings                          : CABAC / 2 Ref Frames
  7. Format settings, CABAC                   : Yes
  8. Format settings, Reference frames        : 2 frames
  9. Codec ID                                 : V_MPEG4/ISO/AVC
  10. Duration                                 : 1 h 42 min
  11. Bit rate mode                            : Variable
  12. Bit rate                                 : 26.8 Mb/s
  13. Width                                    : 1 920 pixels
  14. Height                                   : 1 080 pixels
  15. Display aspect ratio                     : 16:9
  16. Frame rate mode                          : Constant
  17. Frame rate                               : 23.976 (24000/1001) FPS
  18. Color space                              : YUV
  19. Chroma subsampling                       : 4:2:0
  20. Bit depth                                : 8 bits
  21. Scan type                                : Progressive
  22. Bits/(Pixel*Frame)                       : 0.538
  23. Stream size                              : 19.2 GiB (77%)
  24. Title                                    : Last.Christmas.2019.1080p.BluRay.REMUX.AVC.DTS-HD.MA.7.1-FGT
  25. Language                                 : English
  26. Default                                  : No
  27. Forced                                   : No

  28. Audio #1
  29. ID                                       : 2
  30. Format                                   : DTS XLL
  31. Format/Info                              : Digital Theater Systems
  32. Commercial name                          : DTS-HD Master Audio
  33. Codec ID                                 : A_DTS
  34. Duration                                 : 1 h 42 min
  35. Bit rate mode                            : Variable
  36. Bit rate                                 : 4 663 kb/s
  37. Channel(s)                               : 8 channels
  38. Channel layout                           : C L R LFE Lb Rb Lss Rss
  39. Sampling rate                            : 48.0 kHz
  40. Frame rate                               : 93.750 FPS (512 SPF)
  41. Bit depth                                : 24 bits
  42. Compression mode                         : Lossless
  43. Stream size                              : 3.35 GiB (13%)
  44. Title                                    : Last.Christmas.2019.1080p.BluRay.REMUX.AVC.DTS-HD.MA.7.1-FGT
  45. Language                                 : English
  46. Default                                  : Yes
  47. Forced                                   : No

  48. Audio #2
  49. ID                                       : 3
  50. Format                                   : DTS XBR
  51. Format/Info                              : Digital Theater Systems
  52. Commercial name                          : DTS-HD High Resolution Audio
  53. Codec ID                                 : A_DTS
  54. Duration                                 : 1 h 42 min
  55. Bit rate mode                            : Constant
  56. Bit rate                                 : 2 046 kb/s
  57. Channel(s)                               : 8 channels
  58. Channel layout                           : C L R LFE Lb Rb Lss Rss
  59. Sampling rate                            : 48.0 kHz
  60. Frame rate                               : 93.750 FPS (512 SPF)
  61. Bit depth                                : 24 bits
  62. Compression mode                         : Lossy
  63. Stream size                              : 1.47 GiB (6%)
  64. Title                                    : Last.Christmas.2019.1080p.BluRay.REMUX.AVC.DTS-HD.MA.7.1-FGT
  65. Language                                 : Spanish
  66. Default                                  : No
  67. Forced                                   : No

  68. Audio #3
  69. ID                                       : 4
  70. Format                                   : DTS
  71. Format/Info                              : Digital Theater Systems
  72. Codec ID                                 : A_DTS
  73. Duration                                 : 1 h 42 min
  74. Bit rate mode                            : Constant
  75. Bit rate                                 : 768 kb/s
  76. Channel(s)                               : 6 channels
  77. Channel layout                           : C L R Ls Rs LFE
  78. Sampling rate                            : 48.0 kHz
  79. Frame rate                               : 93.750 FPS (512 SPF)
  80. Bit depth                                : 24 bits
  81. Compression mode                         : Lossy
  82. Stream size                              : 565 MiB (2%)
  83. Title                                    : Last.Christmas.2019.1080p.BluRay.REMUX.AVC.DTS-HD.MA.7.1-FGT
  84. Language                                 : French
  85. Default                                  : No
  86. Forced                                   : No

  87. Audio #4
  88. ID                                       : 5
  89. Format                                   : AC-3
  90. Format/Info                              : Audio Coding 3
  91. Commercial name                          : Dolby Digital
  92. Codec ID                                 : A_AC3
  93. Duration                                 : 1 h 42 min
  94. Bit rate mode                            : Constant
  95. Bit rate                                 : 192 kb/s
  96. Channel(s)                               : 2 channels
  97. Channel layout                           : L R
  98. Sampling rate                            : 48.0 kHz
  99. Frame rate                               : 31.250 FPS (1536 SPF)
  100. Bit depth                                : 16 bits
  101. Compression mode                         : Lossy
  102. Stream size                              : 141 MiB (1%)
  103. Title                                    : Last.Christmas.2019.1080p.BluRay.REMUX.AVC.DTS-HD.MA.7.1-FGT
  104. Language                                 : English
  105. Service kind                             : Complete Main
  106. Default                                  : No
  107. Forced                                   : No

  108. Audio #5
  109. ID                                       : 6
  110. Format                                   : AC-3
  111. Format/Info                              : Audio Coding 3
  112. Commercial name                          : Dolby Digital
  113. Codec ID                                 : A_AC3
  114. Duration                                 : 1 h 42 min
  115. Bit rate mode                            : Constant
  116. Bit rate                                 : 192 kb/s
  117. Channel(s)                               : 2 channels
  118. Channel layout                           : L R
  119. Sampling rate                            : 48.0 kHz
  120. Frame rate                               : 31.250 FPS (1536 SPF)
  121. Bit depth                                : 16 bits
  122. Compression mode                         : Lossy
  123. Stream size                              : 141 MiB (1%)
  124. Title                                    : Last.Christmas.2019.1080p.BluRay.REMUX.AVC.DTS-HD.MA.7.1-FGT
  125. Language                                 : English
  126. Service kind                             : Complete Main
  127. Default                                  : No
  128. Forced                                   : No

  129. Audio #6
  130. ID                                       : 7
  131. Format                                   : AC-3
  132. Format/Info                              : Audio Coding 3
  133. Commercial name                          : Dolby Digital
  134. Codec ID                                 : A_AC3
  135. Duration                                 : 1 h 42 min
  136. Bit rate mode                            : Constant
  137. Bit rate                                 : 192 kb/s
  138. Channel(s)                               : 2 channels
  139. Channel layout                           : L R
  140. Sampling rate                            : 48.0 kHz
  141. Frame rate                               : 31.250 FPS (1536 SPF)
  142. Bit depth                                : 16 bits
  143. Compression mode                         : Lossy
  144. Stream size                              : 141 MiB (1%)
  145. Title                                    : Last.Christmas.2019.1080p.BluRay.REMUX.AVC.DTS-HD.MA.7.1-FGT
  146. Language                                 : English
  147. Service kind                             : Complete Main
  148. Default                                  : No
  149. Forced                                   : No

  150. Text #1
  151. ID                                       : 8
  152. Format                                   : UTF-8
  153. Codec ID                                 : S_TEXT/UTF8
  154. Codec ID/Info                            : UTF-8 Plain Text
  155. Duration                                 : 1 h 41 min
  156. Bit rate                                 : 76 b/s
  157. Count of elements                        : 1670
  158. Stream size                              : 56.8 KiB (0%)
  159. Title                                    : English-SRT
  160. Language                                 : English
  161. Default                                  : Yes
  162. Forced                                   : No

  163. Text #2
  164. ID                                       : 9
  165. Format                                   : PGS
  166. Muxing mode                              : zlib
  167. Codec ID                                 : S_HDMV/PGS
  168. Codec ID/Info                            : Picture based subtitle format used on BDs/HD-DVDs
  169. Duration                                 : 1 h 42 min
  170. Bit rate                                 : 55.0 kb/s
  171. Count of elements                        : 3590
  172. Stream size                              : 40.2 MiB (0%)
  173. Title                                    : English-PGS
  174. Language                                 : English
  175. Default                                  : No
  176. Forced                                   : No

  177. Text #3
  178. ID                                       : 10
  179. Format                                   : PGS
  180. Muxing mode                              : zlib
  181. Codec ID                                 : S_HDMV/PGS
  182. Codec ID/Info                            : Picture based subtitle format used on BDs/HD-DVDs
  183. Duration                                 : 1 h 41 min
  184. Bit rate                                 : 42.4 kb/s
  185. Count of elements                        : 3224
  186. Stream size                              : 30.8 MiB (0%)
  187. Title                                    : Spanish-PGS
  188. Language                                 : Spanish
  189. Default                                  : No
  190. Forced                                   : No

  191. Text #4
  192. ID                                       : 11
  193. Format                                   : PGS
  194. Muxing mode                              : zlib
  195. Codec ID                                 : S_HDMV/PGS
  196. Codec ID/Info                            : Picture based subtitle format used on BDs/HD-DVDs
  197. Duration                                 : 1 h 41 min
  198. Bit rate                                 : 45.0 kb/s
  199. Count of elements                        : 2910
  200. Stream size                              : 32.7 MiB (0%)
  201. Title                                    : French-PGS
  202. Language                                 : French
  203. Default                                  : No
  204. Forced                                   : No

  205. Text #5
  206. ID                                       : 12
  207. Format                                   : PGS
  208. Muxing mode                              : zlib
  209. Codec ID                                 : S_HDMV/PGS
  210. Codec ID/Info                            : Picture based subtitle format used on BDs/HD-DVDs
  211. Duration                                 : 1 h 41 min
  212. Bit rate                                 : 3 116 b/s
  213. Count of elements                        : 216
  214. Stream size                              : 2.26 MiB (0%)
  215. Title                                    : Spanish-FORCED-PGS
  216. Language                                 : Spanish
  217. Default                                  : No
  218. Forced                                   : No

  219. Text #6
  220. ID                                       : 13
  221. Format                                   : PGS
  222. Muxing mode                              : zlib
  223. Codec ID                                 : S_HDMV/PGS
  224. Codec ID/Info                            : Picture based subtitle format used on BDs/HD-DVDs
  225. Duration                                 : 1 h 41 min
  226. Bit rate                                 : 3 739 b/s
  227. Count of elements                        : 242
  228. Stream size                              : 2.72 MiB (0%)
  229. Title                                    : French-FORCED-PGS
  230. Language                                 : French
  231. Default                                  : No
  232. Forced                                   : No

  233. Text #7
  234. ID                                       : 14
  235. Format                                   : PGS
  236. Muxing mode                              : zlib
  237. Codec ID                                 : S_HDMV/PGS
  238. Codec ID/Info                            : Picture based subtitle format used on BDs/HD-DVDs
  239. Duration                                 : 1 h 42 min
  240. Bit rate                                 : 87.3 kb/s
  241. Count of elements                        : 3802
  242. Stream size                              : 64.1 MiB (0%)
  243. Title                                    : English-COMMENTARY-PGS
  244. Language                                 : English
  245. Default                                  : No
  246. Forced                                   : No

  247. Text #8
  248. ID                                       : 15
  249. Format                                   : PGS
  250. Muxing mode                              : zlib
  251. Codec ID                                 : S_HDMV/PGS
  252. Codec ID/Info                            : Picture based subtitle format used on BDs/HD-DVDs
  253. Duration                                 : 1 h 42 min
  254. Bit rate                                 : 77.1 kb/s
  255. Count of elements                        : 3957
  256. Stream size                              : 56.7 MiB (0%)
  257. Title                                    : English-COMMENTARY-PGS
  258. Language                                 : English
  259. Default                                  : No
  260. Forced                                   : No

  261. Menu
  262. 00:00:00.000                             : en:Chapter 01
  263. 00:05:48.389                             : en:Chapter 02
  264. 00:10:26.959                             : en:Chapter 03
  265. 00:16:47.006                             : en:Chapter 04
  266. 00:23:20.941                             : en:Chapter 05
  267. 00:26:15.448                             : en:Chapter 06
  268. 00:29:39.068                             : en:Chapter 07
  269. 00:36:00.366                             : en:Chapter 08
  270. 00:40:51.740                             : en:Chapter 09
  271. 00:45:30.978                             : en:Chapter 10
  272. 00:49:55.617                             : en:Chapter 11
  273. 00:52:26.768                             : en:Chapter 12
  274. 00:58:10.820                             : en:Chapter 13
  275. 01:05:48.444                             : en:Chapter 14
  276. 01:10:31.143                             : en:Chapter 15
  277. 01:13:50.592                             : en:Chapter 16
  278. 01:19:31.224                             : en:Chapter 17
  279. 01:24:23.516                             : en:Chapter 18
  280. 01:30:42.437                             : en:Chapter 19
  281. 01:37:41.730                             : en:Chapter 20
复制代码

客岁圣诞/客岁圣诞节 Last.Christmas.2019.1080p.BluRay.REMUX.AVC.DTS-HD.MA.7.1-FGT 25.12GB-2.png 客岁圣诞/客岁圣诞节 Last.Christmas.2019.1080p.BluRay.REMUX.AVC.DTS-HD.MA.7.1-FGT 25.12GB-3.png 客岁圣诞/客岁圣诞节 Last.Christmas.2019.1080p.BluRay.REMUX.AVC.DTS-HD.MA.7.1-FGT 25.12GB-4.png






回复

使用道具 举报

懒得打字嘛,点击右侧快捷回复 【右侧内容,后台自定义】
您需要登录后才可以回帖 登录 | 立即加入

本版积分规则

Archiver|小黑屋| 蓝光电影网 |网站地图

Copyright © 2021 Comsenz Inc. Powered by 蓝光电影网

蓝光电影网

本站内容由用户自主分享和转载自互联网,转载目的在于传递更多信息,并不代表本网赞同其观点和对其真实性负责。

如有侵权、违反国家法律政策行为,请联系我们,我们会第一时间及时清除和处理!

举报反馈邮箱:[email protected]

快速回复 返回顶部 返回列表