找回密码

蓝光电影网

查看: 478|回复: 1

[喜剧] 救火奶爸/烈火湊仔公 Playing.with.Fire.2019.1080p.BluRay.REMUX.AVC.DTS-HD.MA.5.1-FGT 25.18GB

[复制链接]
蓝光币
1020
发表于 2020-2-1 14:09:10 | 显示全部楼层 |阅读模式
救火奶爸/猛火湊仔公 Playing.with.Fire.2019.1080p.BluRay.REMUX.AVC.DTS-HD.MA.5.1-FGT 25.18GB-1.png

译  名 救火奶爸 / 猛火湊仔公(港) / 玩火
片  名 Playing with Fire
年  代 2019
产  地 美国
类  别 笑剧 / 家庭
语  言 英语
上映日期 2019-11-08(美国)
IMDb评分  4.7/10 from 2581 users
IMDb链接  https://www.imdb.com/title/tt9134216
豆瓣评分 4.8/10 from 86 users
豆瓣链接 https://movie.douban.com/subject/30428030/
片  长 96分钟
导  演 安迪·菲克曼 Andy Fickman
编  剧 马特·利伯曼 Matt Lieberman / 丹·埃文 Dan Ewen
主  演 约翰·塞纳 John Cena
       布里安娜·希德布兰德 Brianna Hildebrand
       朱迪·格雷尔 Judy Greer
       科甘-迈克尔·凯 Keegan-Michael Key
       约翰·雷吉扎莫 John Leguizamo
       克里斯蒂安·康佛瑞 Christian Convery
       芬利·罗斯·斯莱特 Finley Rose Slater
       丹尼斯·海斯伯特 Dennis Haysbert
       库尔特·隆 Kurt Long
       泰勒·梅恩 Tyler Mane
       贾思敏·维嘉 Jasmine Vega
       琳达·博伊德 Lynda Boyd


标  签 笑剧 | 美国 | 家庭 | 2019 | 派拉蒙 | 欧美 | 动画 | 日本

简  介  

  报告了“赵喜娜”率队的消防员们在一次救火行动后竟遭受人生最大应战:要照顾从火场救出的三位萌娃,直到他们被爸妈接走。队员们“被迫营业”变身奶爸,人小鬼大的姐弟三人组完全倾覆了消防队的平常生活,状态百出笑料不竭,而猛火豪杰硬核带娃竟也萌出天涯!影片将于2019年11月8日北美上映。
  1. Video
  2. ID                                       : 1
  3. Format                                   : AVC
  4. Format/Info                              : Advanced Video Codec
  5. Format profile                           : [email protected]
  6. Format settings                          : CABAC / 4 Ref Frames
  7. Format settings, CABAC                   : Yes
  8. Format settings, Reference frames        : 4 frames
  9. Codec ID                                 : V_MPEG4/ISO/AVC
  10. Duration                                 : 1 h 35 min
  11. Bit rate mode                            : Variable
  12. Bit rate                                 : 27.9 Mb/s
  13. Maximum bit rate                         : 30.0 Mb/s
  14. Width                                    : 1 920 pixels
  15. Height                                   : 1 080 pixels
  16. Display aspect ratio                     : 16:9
  17. Frame rate mode                          : Constant
  18. Frame rate                               : 23.976 (24000/1001) FPS
  19. Color space                              : YUV
  20. Chroma subsampling                       : 4:2:0
  21. Bit depth                                : 8 bits
  22. Scan type                                : Progressive
  23. Bits/(Pixel*Frame)                       : 0.561
  24. Stream size                              : 18.7 GiB (74%)
  25. Title                                    : Playing.with.Fire.2019.1080p.BluRay.REMUX.AVC.DTS-HD.MA.5.1-FGT
  26. Language                                 : English
  27. Default                                  : No
  28. Forced                                   : No

  29. Audio #1
  30. ID                                       : 2
  31. Format                                   : DTS XLL
  32. Format/Info                              : Digital Theater Systems
  33. Commercial name                          : DTS-HD Master Audio
  34. Codec ID                                 : A_DTS
  35. Duration                                 : 1 h 35 min
  36. Bit rate mode                            : Variable
  37. Bit rate                                 : 3 593 kb/s
  38. Channel(s)                               : 6 channels
  39. Channel layout                           : C L R Ls Rs LFE
  40. Sampling rate                            : 48.0 kHz
  41. Frame rate                               : 93.750 FPS (512 SPF)
  42. Bit depth                                : 24 bits
  43. Compression mode                         : Lossless
  44. Stream size                              : 2.41 GiB (10%)
  45. Title                                    : Playing.with.Fire.2019.1080p.BluRay.REMUX.AVC.DTS-HD.MA.5.1-FGT
  46. Language                                 : English
  47. Default                                  : Yes
  48. Forced                                   : No

  49. Audio #2
  50. ID                                       : 3
  51. Format                                   : AC-3
  52. Format/Info                              : Audio Coding 3
  53. Commercial name                          : Dolby Digital
  54. Codec ID                                 : A_AC3
  55. Duration                                 : 1 h 35 min
  56. Bit rate mode                            : Constant
  57. Bit rate                                 : 640 kb/s
  58. Channel(s)                               : 6 channels
  59. Channel layout                           : L R C LFE Ls Rs
  60. Sampling rate                            : 48.0 kHz
  61. Frame rate                               : 31.250 FPS (1536 SPF)
  62. Bit depth                                : 16 bits
  63. Compression mode                         : Lossy
  64. Stream size                              : 439 MiB (2%)
  65. Title                                    : Playing.with.Fire.2019.1080p.BluRay.REMUX.AVC.DTS-HD.MA.5.1-FGT
  66. Language                                 : English
  67. Service kind                             : Complete Main
  68. Default                                  : No
  69. Forced                                   : No

  70. Audio #3
  71. ID                                       : 4
  72. Format                                   : AC-3
  73. Format/Info                              : Audio Coding 3
  74. Commercial name                          : Dolby Digital
  75. Codec ID                                 : A_AC3
  76. Duration                                 : 1 h 35 min
  77. Bit rate mode                            : Constant
  78. Bit rate                                 : 640 kb/s
  79. Channel(s)                               : 6 channels
  80. Channel layout                           : L R C LFE Ls Rs
  81. Sampling rate                            : 48.0 kHz
  82. Frame rate                               : 31.250 FPS (1536 SPF)
  83. Bit depth                                : 16 bits
  84. Compression mode                         : Lossy
  85. Stream size                              : 439 MiB (2%)
  86. Title                                    : Playing.with.Fire.2019.1080p.BluRay.REMUX.AVC.DTS-HD.MA.5.1-FGT
  87. Language                                 : German
  88. Service kind                             : Complete Main
  89. Default                                  : No
  90. Forced                                   : No

  91. Audio #4
  92. ID                                       : 5
  93. Format                                   : AC-3
  94. Format/Info                              : Audio Coding 3
  95. Commercial name                          : Dolby Digital
  96. Codec ID                                 : A_AC3
  97. Duration                                 : 1 h 35 min
  98. Bit rate mode                            : Constant
  99. Bit rate                                 : 640 kb/s
  100. Channel(s)                               : 6 channels
  101. Channel layout                           : L R C LFE Ls Rs
  102. Sampling rate                            : 48.0 kHz
  103. Frame rate                               : 31.250 FPS (1536 SPF)
  104. Bit depth                                : 16 bits
  105. Compression mode                         : Lossy
  106. Stream size                              : 439 MiB (2%)
  107. Title                                    : Playing.with.Fire.2019.1080p.BluRay.REMUX.AVC.DTS-HD.MA.5.1-FGT
  108. Language                                 : Spanish
  109. Service kind                             : Complete Main
  110. Default                                  : No
  111. Forced                                   : No

  112. Audio #5
  113. ID                                       : 6
  114. Format                                   : AC-3
  115. Format/Info                              : Audio Coding 3
  116. Commercial name                          : Dolby Digital
  117. Codec ID                                 : A_AC3
  118. Duration                                 : 1 h 35 min
  119. Bit rate mode                            : Constant
  120. Bit rate                                 : 640 kb/s
  121. Channel(s)                               : 6 channels
  122. Channel layout                           : L R C LFE Ls Rs
  123. Sampling rate                            : 48.0 kHz
  124. Frame rate                               : 31.250 FPS (1536 SPF)
  125. Bit depth                                : 16 bits
  126. Compression mode                         : Lossy
  127. Stream size                              : 439 MiB (2%)
  128. Title                                    : Playing.with.Fire.2019.1080p.BluRay.REMUX.AVC.DTS-HD.MA.5.1-FGT
  129. Language                                 : Spanish
  130. Service kind                             : Complete Main
  131. Default                                  : No
  132. Forced                                   : No

  133. Audio #6
  134. ID                                       : 7
  135. Format                                   : AC-3
  136. Format/Info                              : Audio Coding 3
  137. Commercial name                          : Dolby Digital
  138. Codec ID                                 : A_AC3
  139. Duration                                 : 1 h 35 min
  140. Bit rate mode                            : Constant
  141. Bit rate                                 : 640 kb/s
  142. Channel(s)                               : 6 channels
  143. Channel layout                           : L R C LFE Ls Rs
  144. Sampling rate                            : 48.0 kHz
  145. Frame rate                               : 31.250 FPS (1536 SPF)
  146. Bit depth                                : 16 bits
  147. Compression mode                         : Lossy
  148. Stream size                              : 439 MiB (2%)
  149. Title                                    : Playing.with.Fire.2019.1080p.BluRay.REMUX.AVC.DTS-HD.MA.5.1-FGT
  150. Language                                 : French
  151. Service kind                             : Complete Main
  152. Default                                  : No
  153. Forced                                   : No

  154. Audio #7
  155. ID                                       : 8
  156. Format                                   : AC-3
  157. Format/Info                              : Audio Coding 3
  158. Commercial name                          : Dolby Digital
  159. Codec ID                                 : A_AC3
  160. Duration                                 : 1 h 35 min
  161. Bit rate mode                            : Constant
  162. Bit rate                                 : 640 kb/s
  163. Channel(s)                               : 6 channels
  164. Channel layout                           : L R C LFE Ls Rs
  165. Sampling rate                            : 48.0 kHz
  166. Frame rate                               : 31.250 FPS (1536 SPF)
  167. Bit depth                                : 16 bits
  168. Compression mode                         : Lossy
  169. Stream size                              : 439 MiB (2%)
  170. Title                                    : Playing.with.Fire.2019.1080p.BluRay.REMUX.AVC.DTS-HD.MA.5.1-FGT
  171. Language                                 : French
  172. Service kind                             : Complete Main
  173. Default                                  : No
  174. Forced                                   : No

  175. Audio #8
  176. ID                                       : 9
  177. Format                                   : AC-3
  178. Format/Info                              : Audio Coding 3
  179. Commercial name                          : Dolby Digital
  180. Codec ID                                 : A_AC3
  181. Duration                                 : 1 h 35 min
  182. Bit rate mode                            : Constant
  183. Bit rate                                 : 640 kb/s
  184. Channel(s)                               : 6 channels
  185. Channel layout                           : L R C LFE Ls Rs
  186. Sampling rate                            : 48.0 kHz
  187. Frame rate                               : 31.250 FPS (1536 SPF)
  188. Bit depth                                : 16 bits
  189. Compression mode                         : Lossy
  190. Stream size                              : 439 MiB (2%)
  191. Title                                    : Playing.with.Fire.2019.1080p.BluRay.REMUX.AVC.DTS-HD.MA.5.1-FGT
  192. Language                                 : Italian
  193. Service kind                             : Complete Main
  194. Default                                  : No
  195. Forced                                   : No

  196. Audio #9
  197. ID                                       : 10
  198. Format                                   : AC-3
  199. Format/Info                              : Audio Coding 3
  200. Commercial name                          : Dolby Digital
  201. Codec ID                                 : A_AC3
  202. Duration                                 : 1 h 35 min
  203. Bit rate mode                            : Constant
  204. Bit rate                                 : 640 kb/s
  205. Channel(s)                               : 6 channels
  206. Channel layout                           : L R C LFE Ls Rs
  207. Sampling rate                            : 48.0 kHz
  208. Frame rate                               : 31.250 FPS (1536 SPF)
  209. Bit depth                                : 16 bits
  210. Compression mode                         : Lossy
  211. Stream size                              : 439 MiB (2%)
  212. Title                                    : Playing.with.Fire.2019.1080p.BluRay.REMUX.AVC.DTS-HD.MA.5.1-FGT
  213. Language                                 : Japanese
  214. Service kind                             : Complete Main
  215. Default                                  : No
  216. Forced                                   : No

  217. Audio #10
  218. ID                                       : 11
  219. Format                                   : AC-3
  220. Format/Info                              : Audio Coding 3
  221. Commercial name                          : Dolby Digital
  222. Codec ID                                 : A_AC3
  223. Duration                                 : 1 h 35 min
  224. Bit rate mode                            : Constant
  225. Bit rate                                 : 640 kb/s
  226. Channel(s)                               : 6 channels
  227. Channel layout                           : L R C LFE Ls Rs
  228. Sampling rate                            : 48.0 kHz
  229. Frame rate                               : 31.250 FPS (1536 SPF)
  230. Bit depth                                : 16 bits
  231. Compression mode                         : Lossy
  232. Stream size                              : 439 MiB (2%)
  233. Title                                    : Playing.with.Fire.2019.1080p.BluRay.REMUX.AVC.DTS-HD.MA.5.1-FGT
  234. Language                                 : Portuguese
  235. Service kind                             : Complete Main
  236. Default                                  : No
  237. Forced                                   : No

  238. Text #1
  239. ID                                       : 12
  240. Format                                   : UTF-8
  241. Codec ID                                 : S_TEXT/UTF8
  242. Codec ID/Info                            : UTF-8 Plain Text
  243. Duration                                 : 1 h 30 min
  244. Bit rate                                 : 73 b/s
  245. Count of elements                        : 1576
  246. Stream size                              : 48.9 KiB (0%)
  247. Title                                    : English-SRT
  248. Language                                 : English
  249. Default                                  : Yes
  250. Forced                                   : No

  251. Text #2
  252. ID                                       : 13
  253. Format                                   : PGS
  254. Muxing mode                              : zlib
  255. Codec ID                                 : S_HDMV/PGS
  256. Codec ID/Info                            : Picture based subtitle format used on BDs/HD-DVDs
  257. Duration                                 : 1 h 30 min
  258. Bit rate                                 : 45.4 kb/s
  259. Count of elements                        : 3042
  260. Stream size                              : 29.4 MiB (0%)
  261. Title                                    : English-PGS
  262. Language                                 : English
  263. Default                                  : No
  264. Forced                                   : No

  265. Text #3
  266. ID                                       : 14
  267. Format                                   : PGS
  268. Muxing mode                              : zlib
  269. Codec ID                                 : S_HDMV/PGS
  270. Codec ID/Info                            : Picture based subtitle format used on BDs/HD-DVDs
  271. Duration                                 : 1 h 31 min
  272. Bit rate                                 : 54.1 kb/s
  273. Count of elements                        : 3628
  274. Stream size                              : 35.2 MiB (0%)
  275. Title                                    : English-PGS
  276. Language                                 : English
  277. Default                                  : No
  278. Forced                                   : No

  279. Text #4
  280. ID                                       : 15
  281. Format                                   : PGS
  282. Muxing mode                              : zlib
  283. Codec ID                                 : S_HDMV/PGS
  284. Codec ID/Info                            : Picture based subtitle format used on BDs/HD-DVDs
  285. Duration                                 : 1 h 35 min
  286. Bit rate                                 : 49.3 kb/s
  287. Count of elements                        : 3082
  288. Stream size                              : 33.6 MiB (0%)
  289. Title                                    : Indonesian-PGS
  290. Language                                 : Indonesian
  291. Default                                  : No
  292. Forced                                   : No

  293. Text #5
  294. ID                                       : 16
  295. Format                                   : PGS
  296. Muxing mode                              : zlib
  297. Codec ID                                 : S_HDMV/PGS
  298. Codec ID/Info                            : Picture based subtitle format used on BDs/HD-DVDs
  299. Duration                                 : 1 h 35 min
  300. Bit rate                                 : 37.6 kb/s
  301. Count of elements                        : 3088
  302. Stream size                              : 25.7 MiB (0%)
  303. Title                                    : Chinese-PGS
  304. Language                                 : Chinese
  305. Default                                  : No
  306. Forced                                   : No

  307. Text #6
  308. ID                                       : 17
  309. Format                                   : PGS
  310. Muxing mode                              : zlib
  311. Codec ID                                 : S_HDMV/PGS
  312. Codec ID/Info                            : Picture based subtitle format used on BDs/HD-DVDs
  313. Duration                                 : 1 h 35 min
  314. Bit rate                                 : 39.5 kb/s
  315. Count of elements                        : 3058
  316. Stream size                              : 26.9 MiB (0%)
  317. Title                                    : Danish-PGS
  318. Language                                 : Danish
  319. Default                                  : No
  320. Forced                                   : No

  321. Text #7
  322. ID                                       : 18
  323. Format                                   : PGS
  324. Muxing mode                              : zlib
  325. Codec ID                                 : S_HDMV/PGS
  326. Codec ID/Info                            : Picture based subtitle format used on BDs/HD-DVDs
  327. Duration                                 : 1 h 35 min
  328. Bit rate                                 : 46.5 kb/s
  329. Count of elements                        : 3080
  330. Stream size                              : 31.7 MiB (0%)
  331. Title                                    : German-PGS
  332. Language                                 : German
  333. Default                                  : No
  334. Forced                                   : No

  335. Text #8
  336. ID                                       : 19
  337. Format                                   : PGS
  338. Muxing mode                              : zlib
  339. Codec ID                                 : S_HDMV/PGS
  340. Codec ID/Info                            : Picture based subtitle format used on BDs/HD-DVDs
  341. Duration                                 : 1 h 35 min
  342. Bit rate                                 : 1 249 b/s
  343. Count of elements                        : 86
  344. Stream size                              : 872 KiB (0%)
  345. Title                                    : German-FORCED-PGS
  346. Language                                 : German
  347. Default                                  : No
  348. Forced                                   : No

  349. Text #9
  350. ID                                       : 20
  351. Format                                   : PGS
  352. Muxing mode                              : zlib
  353. Codec ID                                 : S_HDMV/PGS
  354. Codec ID/Info                            : Picture based subtitle format used on BDs/HD-DVDs
  355. Duration                                 : 1 h 35 min
  356. Bit rate                                 : 41.6 kb/s
  357. Count of elements                        : 2892
  358. Stream size                              : 28.4 MiB (0%)
  359. Title                                    : Greek-PGS
  360. Language                                 : Greek
  361. Default                                  : No
  362. Forced                                   : No

  363. Text #10
  364. ID                                       : 21
  365. Format                                   : PGS
  366. Muxing mode                              : zlib
  367. Codec ID                                 : S_HDMV/PGS
  368. Codec ID/Info                            : Picture based subtitle format used on BDs/HD-DVDs
  369. Duration                                 : 1 h 35 min
  370. Bit rate                                 : 42.4 kb/s
  371. Count of elements                        : 3082
  372. Stream size                              : 28.9 MiB (0%)
  373. Title                                    : Spanish-PGS
  374. Language                                 : Spanish
  375. Default                                  : No
  376. Forced                                   : No

  377. Text #11
  378. ID                                       : 22
  379. Format                                   : PGS
  380. Muxing mode                              : zlib
  381. Codec ID                                 : S_HDMV/PGS
  382. Codec ID/Info                            : Picture based subtitle format used on BDs/HD-DVDs
  383. Duration                                 : 1 h 34 min
  384. Bit rate                                 : 1 280 b/s
  385. Count of elements                        : 86
  386. Stream size                              : 891 KiB (0%)
  387. Title                                    : Spanish-FORCED-PGS
  388. Language                                 : Spanish
  389. Default                                  : No
  390. Forced                                   : No

  391. Text #12
  392. ID                                       : 23
  393. Format                                   : PGS
  394. Muxing mode                              : zlib
  395. Codec ID                                 : S_HDMV/PGS
  396. Codec ID/Info                            : Picture based subtitle format used on BDs/HD-DVDs
  397. Duration                                 : 1 h 35 min
  398. Bit rate                                 : 38.8 kb/s
  399. Count of elements                        : 2824
  400. Stream size                              : 26.4 MiB (0%)
  401. Title                                    : Spanish-PGS
  402. Language                                 : Spanish
  403. Default                                  : No
  404. Forced                                   : No

  405. Text #13
  406. ID                                       : 24
  407. Format                                   : PGS
  408. Muxing mode                              : zlib
  409. Codec ID                                 : S_HDMV/PGS
  410. Codec ID/Info                            : Picture based subtitle format used on BDs/HD-DVDs
  411. Duration                                 : 1 h 34 min
  412. Bit rate                                 : 1 083 b/s
  413. Count of elements                        : 80
  414. Stream size                              : 754 KiB (0%)
  415. Title                                    : Spanish-FORCED-PGS
  416. Language                                 : Spanish
  417. Default                                  : No
  418. Forced                                   : No

  419. Text #14
  420. ID                                       : 25
  421. Format                                   : PGS
  422. Muxing mode                              : zlib
  423. Codec ID                                 : S_HDMV/PGS
  424. Codec ID/Info                            : Picture based subtitle format used on BDs/HD-DVDs
  425. Duration                                 : 1 h 35 min
  426. Bit rate                                 : 38.9 kb/s
  427. Count of elements                        : 3084
  428. Stream size                              : 26.5 MiB (0%)
  429. Title                                    : French-PGS
  430. Language                                 : French
  431. Default                                  : No
  432. Forced                                   : No

  433. Text #15
  434. ID                                       : 26
  435. Format                                   : PGS
  436. Muxing mode                              : zlib
  437. Codec ID                                 : S_HDMV/PGS
  438. Codec ID/Info                            : Picture based subtitle format used on BDs/HD-DVDs
  439. Duration                                 : 1 h 35 min
  440. Bit rate                                 : 1 025 b/s
  441. Count of elements                        : 88
  442. Stream size                              : 716 KiB (0%)
  443. Title                                    : French-FORCED-PGS
  444. Language                                 : French
  445. Default                                  : No
  446. Forced                                   : No

  447. Text #16
  448. ID                                       : 27
  449. Format                                   : PGS
  450. Muxing mode                              : zlib
  451. Codec ID                                 : S_HDMV/PGS
  452. Codec ID/Info                            : Picture based subtitle format used on BDs/HD-DVDs
  453. Duration                                 : 1 h 35 min
  454. Bit rate                                 : 43.6 kb/s
  455. Count of elements                        : 3084
  456. Stream size                              : 29.7 MiB (0%)
  457. Title                                    : French-PGS
  458. Language                                 : French
  459. Default                                  : No
  460. Forced                                   : No

  461. Text #17
  462. ID                                       : 28
  463. Format                                   : PGS
  464. Muxing mode                              : zlib
  465. Codec ID                                 : S_HDMV/PGS
  466. Codec ID/Info                            : Picture based subtitle format used on BDs/HD-DVDs
  467. Duration                                 : 1 h 35 min
  468. Bit rate                                 : 1 284 b/s
  469. Count of elements                        : 88
  470. Stream size                              : 897 KiB (0%)
  471. Title                                    : French-FORCED-PGS
  472. Language                                 : French
  473. Default                                  : No
  474. Forced                                   : No

  475. Text #18
  476. ID                                       : 29
  477. Format                                   : PGS
  478. Muxing mode                              : zlib
  479. Codec ID                                 : S_HDMV/PGS
  480. Codec ID/Info                            : Picture based subtitle format used on BDs/HD-DVDs
  481. Duration                                 : 1 h 35 min
  482. Bit rate                                 : 35.8 kb/s
  483. Count of elements                        : 3088
  484. Stream size                              : 24.4 MiB (0%)
  485. Title                                    : Hindi-PGS
  486. Language                                 : Hindi
  487. Default                                  : No
  488. Forced                                   : No

  489. Text #19
  490. ID                                       : 30
  491. Format                                   : PGS
  492. Muxing mode                              : zlib
  493. Codec ID                                 : S_HDMV/PGS
  494. Codec ID/Info                            : Picture based subtitle format used on BDs/HD-DVDs
  495. Duration                                 : 1 h 35 min
  496. Bit rate                                 : 40.1 kb/s
  497. Count of elements                        : 3082
  498. Stream size                              : 27.4 MiB (0%)
  499. Title                                    : Italian-PGS
  500. Language                                 : Italian
  501. Default                                  : No
  502. Forced                                   : No

  503. Text #20
  504. ID                                       : 31
  505. Format                                   : PGS
  506. Muxing mode                              : zlib
  507. Codec ID                                 : S_HDMV/PGS
  508. Codec ID/Info                            : Picture based subtitle format used on BDs/HD-DVDs
  509. Duration                                 : 1 h 34 min
  510. Bit rate                                 : 1 135 b/s
  511. Count of elements                        : 86
  512. Stream size                              : 790 KiB (0%)
  513. Title                                    : Italian-FORCED-PGS
  514. Language                                 : Italian
  515. Default                                  : No
  516. Forced                                   : No

  517. Text #21
  518. ID                                       : 32
  519. Format                                   : PGS
  520. Muxing mode                              : zlib
  521. Codec ID                                 : S_HDMV/PGS
  522. Codec ID/Info                            : Picture based subtitle format used on BDs/HD-DVDs
  523. Duration                                 : 1 h 30 min
  524. Bit rate                                 : 30.9 kb/s
  525. Count of elements                        : 2924
  526. Stream size                              : 20.0 MiB (0%)
  527. Title                                    : Japanese-PGS
  528. Language                                 : Japanese
  529. Default                                  : No
  530. Forced                                   : No

  531. Text #22
  532. ID                                       : 33
  533. Format                                   : PGS
  534. Muxing mode                              : zlib
  535. Codec ID                                 : S_HDMV/PGS
  536. Codec ID/Info                            : Picture based subtitle format used on BDs/HD-DVDs
  537. Duration                                 : 1 h 35 min
  538. Bit rate                                 : 29.6 kb/s
  539. Count of elements                        : 3088
  540. Stream size                              : 20.2 MiB (0%)
  541. Title                                    : Korean-PGS
  542. Language                                 : Korean
  543. Default                                  : No
  544. Forced                                   : No

  545. Text #23
  546. ID                                       : 34
  547. Format                                   : PGS
  548. Muxing mode                              : zlib
  549. Codec ID                                 : S_HDMV/PGS
  550. Codec ID/Info                            : Picture based subtitle format used on BDs/HD-DVDs
  551. Duration                                 : 1 h 35 min
  552. Bit rate                                 : 29.0 kb/s
  553. Count of elements                        : 2855
  554. Stream size                              : 19.8 MiB (0%)
  555. Title                                    : Chinese-PGS
  556. Language                                 : Chinese
  557. Default                                  : No
  558. Forced                                   : No

  559. Text #24
  560. ID                                       : 35
  561. Format                                   : PGS
  562. Muxing mode                              : zlib
  563. Codec ID                                 : S_HDMV/PGS
  564. Codec ID/Info                            : Picture based subtitle format used on BDs/HD-DVDs
  565. Duration                                 : 1 h 35 min
  566. Bit rate                                 : 43.4 kb/s
  567. Count of elements                        : 3080
  568. Stream size                              : 29.6 MiB (0%)
  569. Title                                    : Dutch-PGS
  570. Language                                 : Dutch
  571. Default                                  : No
  572. Forced                                   : No

  573. Text #25
  574. ID                                       : 36
  575. Format                                   : PGS
  576. Muxing mode                              : zlib
  577. Codec ID                                 : S_HDMV/PGS
  578. Codec ID/Info                            : Picture based subtitle format used on BDs/HD-DVDs
  579. Duration                                 : 1 h 35 min
  580. Bit rate                                 : 38.2 kb/s
  581. Count of elements                        : 3084
  582. Stream size                              : 26.1 MiB (0%)
  583. Title                                    : Norwegian-PGS
  584. Language                                 : Norwegian
  585. Default                                  : No
  586. Forced                                   : No

  587. Text #26
  588. ID                                       : 37
  589. Format                                   : PGS
  590. Muxing mode                              : zlib
  591. Codec ID                                 : S_HDMV/PGS
  592. Codec ID/Info                            : Picture based subtitle format used on BDs/HD-DVDs
  593. Duration                                 : 1 h 35 min
  594. Bit rate                                 : 38.5 kb/s
  595. Count of elements                        : 3080
  596. Stream size                              : 26.3 MiB (0%)
  597. Title                                    : Portuguese-PGS
  598. Language                                 : Portuguese
  599. Default                                  : No
  600. Forced                                   : No

  601. Text #27
  602. ID                                       : 38
  603. Format                                   : PGS
  604. Muxing mode                              : zlib
  605. Codec ID                                 : S_HDMV/PGS
  606. Codec ID/Info                            : Picture based subtitle format used on BDs/HD-DVDs
  607. Duration                                 : 1 h 35 min
  608. Bit rate                                 : 1 158 b/s
  609. Count of elements                        : 88
  610. Stream size                              : 809 KiB (0%)
  611. Title                                    : Portuguese-FORCED-PGS
  612. Language                                 : Portuguese
  613. Default                                  : No
  614. Forced                                   : No

  615. Text #28
  616. ID                                       : 39
  617. Format                                   : PGS
  618. Muxing mode                              : zlib
  619. Codec ID                                 : S_HDMV/PGS
  620. Codec ID/Info                            : Picture based subtitle format used on BDs/HD-DVDs
  621. Duration                                 : 1 h 35 min
  622. Bit rate                                 : 41.1 kb/s
  623. Count of elements                        : 2826
  624. Stream size                              : 28.0 MiB (0%)
  625. Title                                    : Portuguese-PGS
  626. Language                                 : Portuguese
  627. Default                                  : No
  628. Forced                                   : No

  629. Text #29
  630. ID                                       : 40
  631. Format                                   : PGS
  632. Muxing mode                              : zlib
  633. Codec ID                                 : S_HDMV/PGS
  634. Codec ID/Info                            : Picture based subtitle format used on BDs/HD-DVDs
  635. Duration                                 : 1 h 35 min
  636. Bit rate                                 : 37.6 kb/s
  637. Count of elements                        : 2854
  638. Stream size                              : 25.6 MiB (0%)
  639. Title                                    : Romanian-PGS
  640. Language                                 : Romanian
  641. Default                                  : No
  642. Forced                                   : No

  643. Text #30
  644. ID                                       : 41
  645. Format                                   : PGS
  646. Muxing mode                              : zlib
  647. Codec ID                                 : S_HDMV/PGS
  648. Codec ID/Info                            : Picture based subtitle format used on BDs/HD-DVDs
  649. Duration                                 : 1 h 35 min
  650. Bit rate                                 : 38.2 kb/s
  651. Count of elements                        : 3084
  652. Stream size                              : 26.0 MiB (0%)
  653. Title                                    : Finnish-PGS
  654. Language                                 : Finnish
  655. Default                                  : No
  656. Forced                                   : No

  657. Text #31
  658. ID                                       : 42
  659. Format                                   : PGS
  660. Muxing mode                              : zlib
  661. Codec ID                                 : S_HDMV/PGS
  662. Codec ID/Info                            : Picture based subtitle format used on BDs/HD-DVDs
  663. Duration                                 : 1 h 35 min
  664. Bit rate                                 : 40.7 kb/s
  665. Count of elements                        : 3084
  666. Stream size                              : 27.7 MiB (0%)
  667. Title                                    : Swedish-PGS
  668. Language                                 : Swedish
  669. Default                                  : No
  670. Forced                                   : No

  671. Text #32
  672. ID                                       : 43
  673. Format                                   : PGS
  674. Muxing mode                              : zlib
  675. Codec ID                                 : S_HDMV/PGS
  676. Codec ID/Info                            : Picture based subtitle format used on BDs/HD-DVDs
  677. Duration                                 : 1 h 35 min
  678. Bit rate                                 : 41.0 kb/s
  679. Count of elements                        : 3082
  680. Stream size                              : 28.0 MiB (0%)
  681. Title                                    : Turkish-PGS
  682. Language                                 : Turkish
  683. Default                                  : No
  684. Forced                                   : No

  685. Text #33
  686. ID                                       : 44
  687. Format                                   : PGS
  688. Muxing mode                              : zlib
  689. Codec ID                                 : S_HDMV/PGS
  690. Codec ID/Info                            : Picture based subtitle format used on BDs/HD-DVDs
  691. Duration                                 : 1 h 30 min
  692. Bit rate                                 : 873 b/s
  693. Count of elements                        : 88
  694. Stream size                              : 580 KiB (0%)
  695. Title                                    : Japanese-FORCED-PGS
  696. Language                                 : Japanese
  697. Default                                  : No
  698. Forced                                   : No

  699. Menu
  700. 00:00:00.000                             : en:Chapter 01
  701. 00:04:34.482                             : en:Chapter 02
  702. 00:11:38.823                             : en:Chapter 03
  703. 00:18:42.246                             : en:Chapter 04
  704. 00:23:04.674                             : en:Chapter 05
  705. 00:28:04.224                             : en:Chapter 06
  706. 00:32:23.983                             : en:Chapter 07
  707. 00:41:30.571                             : en:Chapter 08
  708. 00:48:22.399                             : en:Chapter 09
  709. 00:52:17.759                             : en:Chapter 10
  710. 00:57:26.693                             : en:Chapter 11
  711. 01:02:15.231                             : en:Chapter 12
  712. 01:10:37.524                             : en:Chapter 13
  713. 01:16:56.236                             : en:Chapter 14
  714. 01:23:43.852                             : en:Chapter 15
  715. 01:29:19.270                             : en:Chapter 16
复制代码

救火奶爸/猛火湊仔公 Playing.with.Fire.2019.1080p.BluRay.REMUX.AVC.DTS-HD.MA.5.1-FGT 25.18GB-2.png 救火奶爸/猛火湊仔公 Playing.with.Fire.2019.1080p.BluRay.REMUX.AVC.DTS-HD.MA.5.1-FGT 25.18GB-3.png 救火奶爸/猛火湊仔公 Playing.with.Fire.2019.1080p.BluRay.REMUX.AVC.DTS-HD.MA.5.1-FGT 25.18GB-4.png






回复

使用道具 举报

懒得打字嘛,点击右侧快捷回复 【右侧内容,后台自定义】
您需要登录后才可以回帖 登录 | 立即加入

本版积分规则

Archiver|小黑屋| 蓝光电影网 |网站地图

Copyright © 2021 Comsenz Inc. Powered by 蓝光电影网

蓝光电影网

本站内容由用户自主分享和转载自互联网,转载目的在于传递更多信息,并不代表本网赞同其观点和对其真实性负责。

如有侵权、违反国家法律政策行为,请联系我们,我们会第一时间及时清除和处理!

举报反馈邮箱:[email protected]

快速回复 返回顶部 返回列表