找回密码

蓝光电影网

查看: 643|回复: 2

[剧情] 睡梦医生 Doctor.Sleep.2019.DC.1080p.BluRay.REMUX.AVC.DTS-HD.MA.TrueHD.7.1.Atmos-FGT 41.54GB

[复制链接]
蓝光币
1020
发表于 2020-2-1 14:10:13 | 显示全部楼层 |阅读模式
睡梦医生 Doctor.Sleep.2019.DC.1080p.BluRay.REMUX.AVC.DTS-HD.MA.TrueHD.7.1.Atmos-FGT 41.54GB-1.png

译  名 睡梦医生 / Dr. Sleep / 《闪灵》续集 / 安息医生(台) / 就寝医师 / 就寝医生 / 长逝医生
片  名 Doctor Sleep
年  代 2019
产  地 美国 / 英国
类  别 剧情 / 惊悚 / 可骇 / 奇异
语  言 英语
上映日期 2019-10-30(法国) / 2019-10-31(英国) / 2019-11-08(美国)
IMDb评分  7.5/10 from 56337 users
IMDb链接  https://www.imdb.com/title/tt5606664
豆瓣评分 6.8/10 from 9257 users
豆瓣链接 https://movie.douban.com/subject/25932065/
片  长 151分钟
导  演 迈克·弗拉纳根 Mike Flanagan
编  剧 斯蒂芬·金 Stephen King / 迈克·弗拉纳根 Mike Flanagan
主  演 伊万·麦克格雷格 Ewan McGregor
       丽贝卡·弗格森 Rebecca Ferguson
       凯丽·卡伦 Kyliegh Curran
       雅各布·特伦布莱 Jacob Tremblay
       卡雷尔·斯特鲁基 Carel Struycken
       丹尼·劳埃德 Danny Lloyd
       艾米丽·阿琳·林德 Emily Alyn Lind
       克利夫·柯蒂斯 Cliff Curtis
       扎恩·迈克拉农 Zahn McClarnon
       切尔西·塔尔玛琪 Chelsea Talmadge
       艾丽克斯·埃索 Alex Essoe
       布鲁斯·格林伍德 Bruce Greenwood
       乔赛琳·唐娜休 Jocelin Donahue
       卡尔·卢波利 Carl Lumbly
       维奥莱特·麦格劳 Violet McGraw
       凯瑟琳·帕克 Catherine Parker
       罗伯特·朗斯特里特 Robert Longstreet
       赛琳娜·安杜兹 Selena Anduze
       尼古拉斯·普罗约尔 Nicholas Pryor
       贝瑟妮·安妮·林德 Bethany Anne Lind
       查尔斯·格林 Charles Green
       扎克瑞·莫莫 Zackary Momoh
       杰森·戴维斯 Jason Davis
       胡安·贾斯帕 Juan Gaspard
       路易斯·桑切斯 Luis Sanchez


标  签 可骇 | 惊悚 | 闪灵续集 | 美国 | 灵异 | 2019 | 小说改编 | 奇异

简  介  

  《闪灵》续集《就寝医师》(Doctor Sleep)北美定档2020年1月24日,仍然按照斯蒂芬·金的同名小说改编,迈克·弗拉纳甘(《杰罗德游戏》《灭亡占卜2》《梦醒之前》)执导。本片聚焦闪灵里的儿子Danny Torrance,履历了Overlook Hotel里可怕的童年时光后,他已经流浪了几十年,渴望摆脱父亲的失望、酒精、暴力等特质,终极假寓在新罕布什尔州的一个小镇上,这是一个支持他的AA制社区,他在一野生老院找到工作,在那边他残余的“闪灵”之力为病笃之人供给了相当重要的终极抚慰。在一只要预知才能的猫的帮助下,他成为了“就寝医师”。2001年女婴Abra Stone诞生,她逐步起头展现超自然之力,似乎猜测到了911事务。她缓慢而无意地与Danny建立起心灵感应的纽带,随着她的长大,气力也比Danny的加倍强大,Danny被重新激起他心中的恶魔,并呼唤他为Abra的灵魂和保存战役。
  弗拉纳甘重写剧本,此前由Akiva Goldsman改编。
  1. Video
  2. ID                                       : 1
  3. Format                                   : AVC
  4. Format/Info                              : Advanced Video Codec
  5. Format profile                           : [email protected]
  6. Format settings                          : CABAC / 4 Ref Frames
  7. Format settings, CABAC                   : Yes
  8. Format settings, Reference frames        : 4 frames
  9. Codec ID                                 : V_MPEG4/ISO/AVC
  10. Duration                                 : 3 h 0 min
  11. Bit rate mode                            : Variable
  12. Bit rate                                 : 23.8 Mb/s
  13. Maximum bit rate                         : 29.5 Mb/s
  14. Width                                    : 1 920 pixels
  15. Height                                   : 1 080 pixels
  16. Display aspect ratio                     : 16:9
  17. Frame rate mode                          : Constant
  18. Frame rate                               : 23.976 (24000/1001) FPS
  19. Color space                              : YUV
  20. Chroma subsampling                       : 4:2:0
  21. Bit depth                                : 8 bits
  22. Scan type                                : Progressive
  23. Bits/(Pixel*Frame)                       : 0.480
  24. Stream size                              : 30.0 GiB (72%)
  25. Title                                    : Doctor.Sleep.2019.DC.1080p.BluRay.REMUX.AVC.DTS-HD.MA.TrueHD.7.1.Atmos-FGT
  26. Language                                 : English
  27. Default                                  : No
  28. Forced                                   : No

  29. Audio #1
  30. ID                                       : 2
  31. Format                                   : MLP FBA 16-ch
  32. Format/Info                              : Meridian Lossless Packing FBA with 16-channel presentation
  33. Commercial name                          : Dolby TrueHD with Dolby Atmos
  34. Codec ID                                 : A_TRUEHD
  35. Duration                                 : 3 h 0 min
  36. Bit rate mode                            : Variable
  37. Bit rate                                 : 3 797 kb/s
  38. Maximum bit rate                         : 7 026 kb/s
  39. Channel(s)                               : 8 channels
  40. Channel layout                           : L R C LFE Ls Rs Lb Rb
  41. Sampling rate                            : 48.0 kHz
  42. Frame rate                               : 1 200.000 FPS (40 SPF)
  43. Compression mode                         : Lossless
  44. Stream size                              : 4.78 GiB (12%)
  45. Title                                    : Doctor.Sleep.2019.DC.1080p.BluRay.REMUX.AVC.DTS-HD.MA.TrueHD.7.1.Atmos-FGT
  46. Language                                 : English
  47. Default                                  : Yes
  48. Forced                                   : No
  49. Number of dynamic objects                : 15
  50. Bed channel count                        : 1 channel
  51. Bed channel configuration                : LFE

  52. Audio #2
  53. ID                                       : 3
  54. Format                                   : DTS XLL
  55. Format/Info                              : Digital Theater Systems
  56. Commercial name                          : DTS-HD Master Audio
  57. Codec ID                                 : A_DTS
  58. Duration                                 : 3 h 0 min
  59. Bit rate mode                            : Variable
  60. Bit rate                                 : 4 092 kb/s
  61. Channel(s)                               : 8 channels
  62. Channel layout                           : C L R LFE Lb Rb Lss Rss
  63. Sampling rate                            : 48.0 kHz
  64. Frame rate                               : 93.750 FPS (512 SPF)
  65. Bit depth                                : 24 bits
  66. Compression mode                         : Lossless
  67. Stream size                              : 5.15 GiB (12%)
  68. Title                                    : Doctor.Sleep.2019.DC.1080p.BluRay.REMUX.AVC.DTS-HD.MA.TrueHD.7.1.Atmos-FGT
  69. Language                                 : English
  70. Default                                  : No
  71. Forced                                   : No

  72. Audio #3
  73. ID                                       : 4
  74. Format                                   : AC-3
  75. Format/Info                              : Audio Coding 3
  76. Commercial name                          : Dolby Digital
  77. Codec ID                                 : A_AC3
  78. Duration                                 : 3 h 0 min
  79. Bit rate mode                            : Constant
  80. Bit rate                                 : 640 kb/s
  81. Channel(s)                               : 6 channels
  82. Channel layout                           : L R C LFE Ls Rs
  83. Sampling rate                            : 48.0 kHz
  84. Frame rate                               : 31.250 FPS (1536 SPF)
  85. Bit depth                                : 16 bits
  86. Compression mode                         : Lossy
  87. Stream size                              : 825 MiB (2%)
  88. Title                                    : Doctor.Sleep.2019.DC.1080p.BluRay.REMUX.AVC.DTS-HD.MA.TrueHD.7.1.Atmos-FGT
  89. Language                                 : English
  90. Service kind                             : Complete Main
  91. Default                                  : No
  92. Forced                                   : No

  93. Audio #4
  94. ID                                       : 5
  95. Format                                   : AC-3
  96. Format/Info                              : Audio Coding 3
  97. Commercial name                          : Dolby Digital
  98. Codec ID                                 : A_AC3
  99. Duration                                 : 3 h 0 min
  100. Bit rate mode                            : Constant
  101. Bit rate                                 : 448 kb/s
  102. Channel(s)                               : 6 channels
  103. Channel layout                           : L R C LFE Ls Rs
  104. Sampling rate                            : 48.0 kHz
  105. Frame rate                               : 31.250 FPS (1536 SPF)
  106. Bit depth                                : 16 bits
  107. Compression mode                         : Lossy
  108. Stream size                              : 578 MiB (1%)
  109. Title                                    : Doctor.Sleep.2019.DC.1080p.BluRay.REMUX.AVC.DTS-HD.MA.TrueHD.7.1.Atmos-FGT
  110. Language                                 : English
  111. Service kind                             : Complete Main
  112. Default                                  : No
  113. Forced                                   : No

  114. Text #1
  115. ID                                       : 6
  116. Format                                   : UTF-8
  117. Codec ID                                 : S_TEXT/UTF8
  118. Codec ID/Info                            : UTF-8 Plain Text
  119. Duration                                 : 2 h 53 min
  120. Bit rate                                 : 38 b/s
  121. Count of elements                        : 1971
  122. Stream size                              : 49.1 KiB (0%)
  123. Title                                    : English-SRT
  124. Language                                 : English
  125. Default                                  : Yes
  126. Forced                                   : No

  127. Text #2
  128. ID                                       : 7
  129. Format                                   : PGS
  130. Muxing mode                              : zlib
  131. Codec ID                                 : S_HDMV/PGS
  132. Codec ID/Info                            : Picture based subtitle format used on BDs/HD-DVDs
  133. Duration                                 : 2 h 54 min
  134. Bit rate                                 : 28.4 kb/s
  135. Count of elements                        : 4686
  136. Stream size                              : 35.6 MiB (0%)
  137. Title                                    : English-PGS
  138. Language                                 : English
  139. Default                                  : No
  140. Forced                                   : No

  141. Text #3
  142. ID                                       : 8
  143. Format                                   : PGS
  144. Muxing mode                              : zlib
  145. Codec ID                                 : S_HDMV/PGS
  146. Codec ID/Info                            : Picture based subtitle format used on BDs/HD-DVDs
  147. Duration                                 : 2 h 53 min
  148. Bit rate                                 : 18.1 kb/s
  149. Count of elements                        : 3742
  150. Stream size                              : 22.4 MiB (0%)
  151. Title                                    : Japanese-PGS
  152. Language                                 : Japanese
  153. Default                                  : No
  154. Forced                                   : No

  155. Text #4
  156. ID                                       : 9
  157. Format                                   : PGS
  158. Muxing mode                              : zlib
  159. Codec ID                                 : S_HDMV/PGS
  160. Codec ID/Info                            : Picture based subtitle format used on BDs/HD-DVDs
  161. Duration                                 : 2 h 59 min
  162. Bit rate                                 : 20.4 kb/s
  163. Count of elements                        : 3646
  164. Stream size                              : 26.2 MiB (0%)
  165. Title                                    : French-PGS
  166. Language                                 : French
  167. Default                                  : No
  168. Forced                                   : No

  169. Text #5
  170. ID                                       : 10
  171. Format                                   : PGS
  172. Muxing mode                              : zlib
  173. Codec ID                                 : S_HDMV/PGS
  174. Codec ID/Info                            : Picture based subtitle format used on BDs/HD-DVDs
  175. Duration                                 : 2 h 57 min
  176. Bit rate                                 : 32.4 kb/s
  177. Count of elements                        : 4620
  178. Stream size                              : 41.0 MiB (0%)
  179. Title                                    : German-PGS
  180. Language                                 : German
  181. Default                                  : No
  182. Forced                                   : No

  183. Text #6
  184. ID                                       : 11
  185. Format                                   : PGS
  186. Muxing mode                              : zlib
  187. Codec ID                                 : S_HDMV/PGS
  188. Codec ID/Info                            : Picture based subtitle format used on BDs/HD-DVDs
  189. Duration                                 : 2 h 54 min
  190. Bit rate                                 : 27.6 kb/s
  191. Count of elements                        : 4748
  192. Stream size                              : 34.6 MiB (0%)
  193. Title                                    : Italian-PGS
  194. Language                                 : Italian
  195. Default                                  : No
  196. Forced                                   : No

  197. Text #7
  198. ID                                       : 12
  199. Format                                   : PGS
  200. Muxing mode                              : zlib
  201. Codec ID                                 : S_HDMV/PGS
  202. Codec ID/Info                            : Picture based subtitle format used on BDs/HD-DVDs
  203. Duration                                 : 2 h 59 min
  204. Bit rate                                 : 22.6 kb/s
  205. Count of elements                        : 3924
  206. Stream size                              : 29.0 MiB (0%)
  207. Title                                    : Spanish-PGS
  208. Language                                 : Spanish
  209. Default                                  : No
  210. Forced                                   : No

  211. Text #8
  212. ID                                       : 13
  213. Format                                   : PGS
  214. Muxing mode                              : zlib
  215. Codec ID                                 : S_HDMV/PGS
  216. Codec ID/Info                            : Picture based subtitle format used on BDs/HD-DVDs
  217. Duration                                 : 2 h 59 min
  218. Bit rate                                 : 22.2 kb/s
  219. Count of elements                        : 3058
  220. Stream size                              : 28.4 MiB (0%)
  221. Title                                    : Dutch-PGS
  222. Language                                 : Dutch
  223. Default                                  : No
  224. Forced                                   : No

  225. Text #9
  226. ID                                       : 14
  227. Format                                   : PGS
  228. Muxing mode                              : zlib
  229. Codec ID                                 : S_HDMV/PGS
  230. Codec ID/Info                            : Picture based subtitle format used on BDs/HD-DVDs
  231. Duration                                 : 2 h 53 min
  232. Bit rate                                 : 24.5 kb/s
  233. Count of elements                        : 3972
  234. Stream size                              : 30.4 MiB (0%)
  235. Title                                    : Spanish-PGS
  236. Language                                 : Spanish
  237. Default                                  : No
  238. Forced                                   : No

  239. Text #10
  240. ID                                       : 15
  241. Format                                   : PGS
  242. Muxing mode                              : zlib
  243. Codec ID                                 : S_HDMV/PGS
  244. Codec ID/Info                            : Picture based subtitle format used on BDs/HD-DVDs
  245. Duration                                 : 2 h 53 min
  246. Bit rate                                 : 25.5 kb/s
  247. Count of elements                        : 3996
  248. Stream size                              : 31.6 MiB (0%)
  249. Title                                    : Portuguese-PGS
  250. Language                                 : Portuguese
  251. Default                                  : No
  252. Forced                                   : No

  253. Text #11
  254. ID                                       : 16
  255. Format                                   : PGS
  256. Muxing mode                              : zlib
  257. Codec ID                                 : S_HDMV/PGS
  258. Codec ID/Info                            : Picture based subtitle format used on BDs/HD-DVDs
  259. Duration                                 : 2 h 59 min
  260. Bit rate                                 : 22.0 kb/s
  261. Count of elements                        : 2844
  262. Stream size                              : 28.2 MiB (0%)
  263. Title                                    : Danish-PGS
  264. Language                                 : Danish
  265. Default                                  : No
  266. Forced                                   : No

  267. Text #12
  268. ID                                       : 17
  269. Format                                   : PGS
  270. Muxing mode                              : zlib
  271. Codec ID                                 : S_HDMV/PGS
  272. Codec ID/Info                            : Picture based subtitle format used on BDs/HD-DVDs
  273. Duration                                 : 2 h 53 min
  274. Bit rate                                 : 24.7 kb/s
  275. Count of elements                        : 3912
  276. Stream size                              : 30.5 MiB (0%)
  277. Title                                    : Finnish-PGS
  278. Language                                 : Finnish
  279. Default                                  : No
  280. Forced                                   : No

  281. Text #13
  282. ID                                       : 18
  283. Format                                   : PGS
  284. Muxing mode                              : zlib
  285. Codec ID                                 : S_HDMV/PGS
  286. Codec ID/Info                            : Picture based subtitle format used on BDs/HD-DVDs
  287. Duration                                 : 2 h 53 min
  288. Bit rate                                 : 22.3 kb/s
  289. Count of elements                        : 3298
  290. Stream size                              : 27.6 MiB (0%)
  291. Title                                    : Norwegian-PGS
  292. Language                                 : Norwegian
  293. Default                                  : No
  294. Forced                                   : No

  295. Text #14
  296. ID                                       : 19
  297. Format                                   : PGS
  298. Muxing mode                              : zlib
  299. Codec ID                                 : S_HDMV/PGS
  300. Codec ID/Info                            : Picture based subtitle format used on BDs/HD-DVDs
  301. Duration                                 : 2 h 53 min
  302. Bit rate                                 : 24.2 kb/s
  303. Count of elements                        : 3958
  304. Stream size                              : 29.9 MiB (0%)
  305. Title                                    : Swedish-PGS
  306. Language                                 : Swedish
  307. Default                                  : No
  308. Forced                                   : No

  309. Menu
  310. 00:00:00.000                             : en:Chapter 01
  311. 00:08:29.300                             : en:Chapter 02
  312. 00:16:39.623                             : en:Chapter 03
  313. 00:28:01.638                             : en:Chapter 04
  314. 00:36:45.453                             : en:Chapter 05
  315. 00:44:42.763                             : en:Chapter 06
  316. 00:53:24.367                             : en:Chapter 07
  317. 01:03:41.484                             : en:Chapter 08
  318. 01:13:39.456                             : en:Chapter 09
  319. 01:22:05.962                             : en:Chapter 10
  320. 01:28:56.331                             : en:Chapter 11
  321. 01:37:13.244                             : en:Chapter 12
  322. 01:46:31.593                             : en:Chapter 13
  323. 01:55:11.529                             : en:Chapter 14
  324. 02:06:19.947                             : en:Chapter 15
  325. 02:14:58.590                             : en:Chapter 16
  326. 02:21:33.401                             : en:Chapter 17
  327. 02:31:58.359                             : en:Chapter 18
  328. 02:42:26.403                             : en:Chapter 19
  329. 02:54:07.437                             : en:Chapter 20
复制代码

睡梦医生 Doctor.Sleep.2019.DC.1080p.BluRay.REMUX.AVC.DTS-HD.MA.TrueHD.7.1.Atmos-FGT 41.54GB-2.png 睡梦医生 Doctor.Sleep.2019.DC.1080p.BluRay.REMUX.AVC.DTS-HD.MA.TrueHD.7.1.Atmos-FGT 41.54GB-3.png 睡梦医生 Doctor.Sleep.2019.DC.1080p.BluRay.REMUX.AVC.DTS-HD.MA.TrueHD.7.1.Atmos-FGT 41.54GB-4.png






回复

使用道具 举报

蓝光币
263
发表于 2020-12-8 14:34:11 | 显示全部楼层

这东西我收了!谢谢楼主!蓝光电影网真好!
回复 支持 反对

使用道具 举报

懒得打字嘛,点击右侧快捷回复 【右侧内容,后台自定义】
您需要登录后才可以回帖 登录 | 立即加入

本版积分规则

Archiver|小黑屋| 蓝光电影网 |网站地图

Copyright © 2021 Comsenz Inc. Powered by 蓝光电影网

蓝光电影网

本站内容由用户自主分享和转载自互联网,转载目的在于传递更多信息,并不代表本网赞同其观点和对其真实性负责。

如有侵权、违反国家法律政策行为,请联系我们,我们会第一时间及时清除和处理!

举报反馈邮箱:[email protected]

快速回复 返回顶部 返回列表