找回密码

蓝光电影网

查看: 1700|回复: 6

[2160p-WEB] 比佛利山超级警探2/妙探出差2 Beverly.Hills.Cop.II.1987.2160p.AMZN.WEBRip.DDP5.1.x264-AJP69 36.73GB

[复制链接]
蓝光币
1022
发表于 2020-2-1 14:15:41 | 显示全部楼层 |阅读模式
比佛利山超级警探2/妙探出差2 Beverly.Hills.Cop.II.1987.2160p.AMZN.WEBRip.DDP5.1.x264-AJP69 36.73GB-1.png

译  名 比佛利山超级警探2 / 妙探出差2 / 妙探出差续集 / 妙探出更续集 / 比佛利山警探2 / 轰天雷2 / 轰隆炮2
片  名 Beverly Hills Cop II
年  代 1987
产  地 美国
类  别 笑剧 / 行动 / 惊悚 / 犯罪
语  言 英语
上映日期 1987-05-20
IMDb评分  6.5/10 from 101566 users
IMDb链接  https://www.imdb.com/title/tt0092644
豆瓣评分 6.7/10 from 983 users
豆瓣链接 https://movie.douban.com/subject/1301783/
片  长 100 分钟
导  演 Tony Scott
编  剧 Larry Ferguson / Warren Skaaren / Danilo Bach / Daniel Petrie Jr. / Eddie Murphy / Robert D. Wachs
主  演 艾迪·墨菲 Eddie Murphy
       祖德·莱茵霍尔德 Judge Reinhold
       尤尔根·普洛斯诺 Jürgen Prochnow
       罗尼·考克斯 Ronny Cox
       John Ashton
       布里吉特·尼尔森 Brigitte Nielsen
       艾伦·加菲尔德 Allen Garfield
       迪恩·斯托克维尔 Dean Stockwell
       保罗·雷瑟 Paul Reiser
       Gilbert R. Hill
       保罗·盖尔福勒 Paul Guilfoyle
       Robert Ridgely
       Brian O'Connor
       Alice Adair
       Eugene Butler


标  签 笑剧 | 美国 | 行动 | 美国电影 | 犯罪 | 1987 | 警匪 | 搞笑

简  介  

  这是比佛利山超级警探的第二集。艾索(艾迪?墨菲 Eddie Murphy 饰)在上一集破案后老老实实地回到了底特律当他的刑警,回到底特律的他顿时感应百无聊赖。因而,艾索每周城市找他在洛山矶办案时结识的好朋友兼好同伴洛山矶警局的局长博格密尔(罗尼?考克斯 Ronny Cox 饰)出海钓鱼。
  可是这周博格密尔姑且取消了和艾索的钓鱼活动,事后艾索才得知本来博格密尔卷入了一单复杂危险的案件侦察中。博格密尔不幸在观察中被犯罪枪击受伤,现在正住在医院里。历来课本气、嫉恶如仇的艾索又怎能按耐得住,因而他顿时来到了洛山矶约上最好同伴比利(祖德?莱茵霍尔德 Judge Reinhold 饰),要一展身手为好友报仇。

获奖情况  

  第60届奥斯卡金像奖(1988)
  最好原创歌曲(提名) 基思·福西 / 哈罗德·方特梅耶 / Bob Seger
  1. Video
  2. ID                                       : 1
  3. Format                                   : AVC
  4. Format/Info                              : Advanced Video Codec
  5. Format profile                           : [email protected]
  6. Format settings                          : CABAC / 7 Ref Frames
  7. Format settings, CABAC                   : Yes
  8. Format settings, Reference frames        : 7 frames
  9. Codec ID                                 : V_MPEG4/ISO/AVC
  10. Duration                                 : 1 h 42 min
  11. Bit rate                                 : 50.4 Mb/s
  12. Width                                    : 3 840 pixels
  13. Height                                   : 1 632 pixels
  14. Display aspect ratio                     : 2.35:1
  15. Frame rate mode                          : Constant
  16. Frame rate                               : 23.976 (24000/1001) FPS
  17. Color space                              : YUV
  18. Chroma subsampling                       : 4:2:0
  19. Bit depth                                : 8 bits
  20. Scan type                                : Progressive
  21. Bits/(Pixel*Frame)                       : 0.336
  22. Stream size                              : 36.3 GiB (99%)
  23. Writing library                          : x264 core 155 r2901 7d0ff22
  24. Encoding settings                        : cabac=1 / ref=7 / deblock=1:-3:-3 / analyse=0x3:0x133 / me=umh / subme=10 / psy=1 / psy_rd=1.00:0.00 / mixed_ref=1 / me_range=48 / chroma_me=1 / trellis=2 / 8x8dct=1 / cqm=0 / deadzone=21,11 / fast_pskip=0 / chroma_qp_offset=-2 / threads=12 / lookahead_threads=2 / sliced_threads=0 / nr=0 / decimate=0 / interlaced=0 / bluray_compat=0 / constrained_intra=0 / bframes=8 / b_pyramid=2 / b_adapt=2 / b_bias=0 / direct=3 / weightb=1 / open_gop=0 / weightp=2 / keyint=250 / keyint_min=23 / scenecut=40 / intra_refresh=0 / rc=crf / mbtree=0 / crf=20.0 / qcomp=0.60 / qpmin=0 / qpmax=69 / qpstep=4 / ip_ratio=1.40 / pb_ratio=1.30 / aq=3:0.80
  25. Default                                  : Yes
  26. Forced                                   : No

  27. Audio
  28. ID                                       : 2
  29. Format                                   : E-AC-3
  30. Format/Info                              : Enhanced AC-3
  31. Commercial name                          : Dolby Digital Plus
  32. Codec ID                                 : A_EAC3
  33. Duration                                 : 1 h 42 min
  34. Bit rate mode                            : Constant
  35. Bit rate                                 : 640 kb/s
  36. Channel(s)                               : 6 channels
  37. Channel layout                           : L R C LFE Ls Rs
  38. Sampling rate                            : 48.0 kHz
  39. Frame rate                               : 31.250 FPS (1536 SPF)
  40. Compression mode                         : Lossy
  41. Stream size                              : 471 MiB (1%)
  42. Language                                 : English
  43. Service kind                             : Complete Main
  44. Default                                  : Yes
  45. Forced                                   : No

  46. Text #1
  47. ID                                       : 3
  48. Format                                   : UTF-8
  49. Codec ID                                 : S_TEXT/UTF8
  50. Codec ID/Info                            : UTF-8 Plain Text
  51. Duration                                 : 1 h 41 min
  52. Bit rate                                 : 72 b/s
  53. Count of elements                        : 1710
  54. Stream size                              : 53.8 KiB (0%)
  55. Language                                 : English
  56. Default                                  : No
  57. Forced                                   : No

  58. Text #2
  59. ID                                       : 4
  60. Format                                   : UTF-8
  61. Codec ID                                 : S_TEXT/UTF8
  62. Codec ID/Info                            : UTF-8 Plain Text
  63. Duration                                 : 1 h 41 min
  64. Bit rate                                 : 72 b/s
  65. Count of elements                        : 1714
  66. Stream size                              : 53.9 KiB (0%)
  67. Title                                    : SDH
  68. Language                                 : English
  69. Default                                  : No
  70. Forced                                   : No
复制代码

比佛利山超级警探2/妙探出差2 Beverly.Hills.Cop.II.1987.2160p.AMZN.WEBRip.DDP5.1.x264-AJP69 36.73GB-2.png 比佛利山超级警探2/妙探出差2 Beverly.Hills.Cop.II.1987.2160p.AMZN.WEBRip.DDP5.1.x264-AJP69 36.73GB-3.png 比佛利山超级警探2/妙探出差2 Beverly.Hills.Cop.II.1987.2160p.AMZN.WEBRip.DDP5.1.x264-AJP69 36.73GB-4.png






回复

使用道具 举报

蓝光币
758
发表于 2020-2-1 15:35:16 | 显示全部楼层
谢谢楼主无私分享。
回复 支持 反对

使用道具 举报

蓝光币
1629
发表于 2020-2-1 16:03:08 | 显示全部楼层

楼主太厉害了!楼主,电影应该很好看我觉得蓝光电影网真是个好地方!
回复 支持 反对

使用道具 举报

蓝光币
1306
发表于 2020-2-4 12:40:47 | 显示全部楼层
楼主发贴辛苦了,谢谢楼主分享!我觉得蓝光电影网是注册对了!
回复 支持 反对

使用道具 举报

蓝光币
7
发表于 2020-2-4 16:32:11 | 显示全部楼层

这东西我收了!谢谢楼主!蓝光电影网真好!
回复 支持 反对

使用道具 举报

蓝光币
131
发表于 2020-2-4 17:22:19 | 显示全部楼层
谢谢楼主的分享。
回复 支持 反对

使用道具 举报

蓝光币
1307
发表于 2020-2-5 11:34:53 | 显示全部楼层
老电影,哈哈哈,贼6
回复 支持 反对

使用道具 举报

懒得打字嘛,点击右侧快捷回复 【右侧内容,后台自定义】
您需要登录后才可以回帖 登录 | 立即加入

本版积分规则

Archiver|小黑屋| 蓝光电影网 |网站地图

Copyright © 2021 Comsenz Inc. Powered by 蓝光电影网

蓝光电影网

本站内容由用户自主分享和转载自互联网,转载目的在于传递更多信息,并不代表本网赞同其观点和对其真实性负责。

如有侵权、违反国家法律政策行为,请联系我们,我们会第一时间及时清除和处理!

举报反馈邮箱:[email protected]

快速回复 返回顶部 返回列表