找回密码

蓝光电影网

查看: 2378|回复: 3

[8bit.SDR] 街区男孩/头巾少年 Boyz.n.the.Hood.1991.2160p.BluRay.x264.8bit.SDR.DTS-HD.MA.TrueHD.7.1.Atmos-SWTYBLZ 55.92GB

[复制链接]
蓝光币
1082
发表于 2020-2-1 14:22:07 | 显示全部楼层 |阅读模式
街区男孩/头巾少年 Boyz.n.the.Hood.1991.2160p.BluRay.x264.8bit.SDR.DTS-HD.MA.TrueHD.7.1.Atmos-SWTYBLZ 55.92GB-1.png

译  名 街区男孩 / 头巾少年 / 邻家少年杀人事务
片  名 Boyz n the Hood
年  代 1991
产  地 美国
类  别 剧情
语  言 英语
上映日期 1991-07-12
IMDb评分  7.7/10 from 116499 users
IMDb链接  https://www.imdb.com/title/tt0101507
豆瓣评分 8.1/10 from 1166 users
豆瓣链接 https://movie.douban.com/subject/1292872/
片  长 112 分钟
导  演 John Singleton
编  剧 John Singleton
主  演 小库珀·古丁 Cuba Gooding Jr.
       劳伦斯·菲什伯恩 Laurence Fishburne
       艾斯·库珀 Ice Cube
       安吉拉·贝塞特 Angela Bassett
       Hudhail Al-Amir


标  签 美国 | 犯罪 | 黑人 | 青春 | 1991 | 美国电影 | 种族 | hiphop

简  介  

  在美国西部的黑人街区中,暴力与犯罪几近随时都在发生,街上闲晃的青年与草丛里发臭的尸身点缀着小门生提瑞·斯代尔天天与伙伴们的生活,提瑞性情多话好胜,在课堂上与同学大打脱手,为了他的教育题目,母亲将提瑞送到了前夫福瑞斯(劳伦斯·菲什伯恩 Laurence Fishburne 饰)那边,父亲有着强悍的本性,提瑞在他的指导下长大着……七年以后,提瑞(小库珀·古丁 Cuba Gooding Jr 饰)已是一位青年,黑人街区的紊乱状态并没有改良,提瑞和他的朋友们卷入了宿命般的陌头仇杀中……
  本片编导约翰·辛格顿以23岁之龄获得奥斯卡最好导演提名,连结着最年轻获提名导演的记载。

获奖情况  

  第64届奥斯卡金像奖(1992)
  最好导演(提名) 约翰·辛格顿
  最好原创剧本(提名) 约翰·辛格顿
  1. Video
  2. ID                                       : 1
  3. Format                                   : AVC
  4. Format/Info                              : Advanced Video Codec
  5. Format profile                           : [email protected]
  6. Format settings                          : CABAC / 5 Ref Frames
  7. Format settings, CABAC                   : Yes
  8. Format settings, Reference frames        : 5 frames
  9. Codec ID                                 : V_MPEG4/ISO/AVC
  10. Duration                                 : 1 h 52 min
  11. Bit rate                                 : 62.8 Mb/s
  12. Width                                    : 3 840 pixels
  13. Height                                   : 2 076 pixels
  14. Display aspect ratio                     : 1.85:1
  15. Frame rate mode                          : Constant
  16. Frame rate                               : 23.976 (24000/1001) FPS
  17. Color space                              : YUV
  18. Chroma subsampling                       : 4:2:0
  19. Bit depth                                : 8 bits
  20. Scan type                                : Progressive
  21. Bits/(Pixel*Frame)                       : 0.329
  22. Stream size                              : 49.2 GiB (88%)
  23. Title                                    : Boyz.n.the.Hood.1991.2160p.BluRay.x264.8bit.SDR.DTS-HD.MA.TrueHD.7.1.Atmos-SWTYBLZ
  24. Writing library                          : x264 core 157 r2935 545de2f
  25. Encoding settings                        : cabac=1 / ref=5 / deblock=1:-1:-1 / analyse=0x3:0x113 / me=umh / subme=10 / psy=1 / psy_rd=1.00:0.15 / mixed_ref=1 / me_range=48 / chroma_me=1 / trellis=2 / 8x8dct=1 / cqm=0 / deadzone=21,11 / fast_pskip=1 / chroma_qp_offset=-3 / threads=36 / lookahead_threads=3 / sliced_threads=0 / nr=0 / decimate=0 / interlaced=0 / bluray_compat=0 / constrained_intra=0 / bframes=3 / b_pyramid=2 / b_adapt=2 / b_bias=0 / direct=3 / weightb=1 / open_gop=0 / weightp=2 / keyint=250 / keyint_min=23 / scenecut=40 / intra_refresh=0 / rc_lookahead=50 / rc=crf / mbtree=1 / crf=22.0 / qcomp=0.60 / qpmin=0 / qpmax=69 / qpstep=4 / ip_ratio=1.40 / aq=1:1.00
  26. Default                                  : Yes
  27. Forced                                   : No

  28. Audio #1
  29. ID                                       : 2
  30. Format                                   : MLP FBA 16-ch
  31. Format/Info                              : Meridian Lossless Packing FBA with 16-channel presentation
  32. Commercial name                          : Dolby TrueHD with Dolby Atmos
  33. Codec ID                                 : A_TRUEHD
  34. Duration                                 : 1 h 52 min
  35. Bit rate mode                            : Variable
  36. Bit rate                                 : 3 264 kb/s
  37. Maximum bit rate                         : 5 040 kb/s
  38. Channel(s)                               : 8 channels
  39. Channel layout                           : L R C LFE Ls Rs Lb Rb
  40. Sampling rate                            : 48.0 kHz
  41. Frame rate                               : 1 200.000 FPS (40 SPF)
  42. Compression mode                         : Lossless
  43. Stream size                              : 2.56 GiB (5%)
  44. Title                                    : Boyz.n.the.Hood.1991.2160p.BluRay.x264.8bit.SDR.DTS-HD.MA.TrueHD.7.1.Atmos-SWTYBLZ
  45. Language                                 : English
  46. Default                                  : Yes
  47. Forced                                   : No
  48. Number of dynamic objects                : 11
  49. Bed channel count                        : 1 channel
  50. Bed channel configuration                : LFE

  51. Audio #2
  52. ID                                       : 3
  53. Format                                   : DTS XLL
  54. Format/Info                              : Digital Theater Systems
  55. Commercial name                          : DTS-HD Master Audio
  56. Codec ID                                 : A_DTS
  57. Duration                                 : 1 h 52 min
  58. Bit rate mode                            : Variable
  59. Bit rate                                 : 4 039 kb/s
  60. Channel(s)                               : 8 channels
  61. Channel layout                           : C L R LFE Lb Rb Lss Rss
  62. Sampling rate                            : 48.0 kHz
  63. Frame rate                               : 93.750 FPS (512 SPF)
  64. Bit depth                                : 24 bits
  65. Compression mode                         : Lossless
  66. Stream size                              : 3.16 GiB (6%)
  67. Title                                    : Boyz.n.the.Hood.1991.2160p.BluRay.x264.8bit.SDR.DTS-HD.MA.TrueHD.7.1.Atmos-SWTYBLZ
  68. Language                                 : English
  69. Default                                  : No
  70. Forced                                   : No

  71. Audio #3
  72. ID                                       : 4
  73. Format                                   : AC-3
  74. Format/Info                              : Audio Coding 3
  75. Commercial name                          : Dolby Digital
  76. Codec ID                                 : A_AC3
  77. Duration                                 : 1 h 52 min
  78. Bit rate mode                            : Constant
  79. Bit rate                                 : 640 kb/s
  80. Channel(s)                               : 6 channels
  81. Channel layout                           : L R C LFE Ls Rs
  82. Sampling rate                            : 48.0 kHz
  83. Frame rate                               : 31.250 FPS (1536 SPF)
  84. Compression mode                         : Lossy
  85. Stream size                              : 513 MiB (1%)
  86. Title                                    : Boyz.n.the.Hood.1991.2160p.BluRay.x264.8bit.SDR.DTS-HD.MA.TrueHD.7.1.Atmos-SWTYBLZ
  87. Language                                 : English
  88. Service kind                             : Complete Main
  89. Default                                  : No
  90. Forced                                   : No

  91. Text #1
  92. ID                                       : 5
  93. Format                                   : UTF-8
  94. Codec ID                                 : S_TEXT/UTF8
  95. Codec ID/Info                            : UTF-8 Plain Text
  96. Duration                                 : 1 h 46 min
  97. Bit rate                                 : 59 b/s
  98. Count of elements                        : 1318
  99. Stream size                              : 46.6 KiB (0%)
  100. Title                                    : English-SRT
  101. Language                                 : English
  102. Default                                  : Yes
  103. Forced                                   : No

  104. Text #2
  105. ID                                       : 6
  106. Format                                   : PGS
  107. Muxing mode                              : zlib
  108. Codec ID                                 : S_HDMV/PGS
  109. Codec ID/Info                            : Picture based subtitle format used on BDs/HD-DVDs
  110. Duration                                 : 1 h 46 min
  111. Bit rate                                 : 34.8 kb/s
  112. Count of elements                        : 2642
  113. Stream size                              : 26.6 MiB (0%)
  114. Title                                    : English-PGS
  115. Language                                 : English
  116. Default                                  : No
  117. Forced                                   : No

  118. Text #3
  119. ID                                       : 7
  120. Format                                   : PGS
  121. Muxing mode                              : zlib
  122. Codec ID                                 : S_HDMV/PGS
  123. Codec ID/Info                            : Picture based subtitle format used on BDs/HD-DVDs
  124. Duration                                 : 1 h 51 min
  125. Bit rate                                 : 39.8 kb/s
  126. Count of elements                        : 3162
  127. Stream size                              : 31.7 MiB (0%)
  128. Title                                    : English-SDH-PGS
  129. Language                                 : English
  130. Default                                  : No
  131. Forced                                   : No

  132. Text #4
  133. ID                                       : 8
  134. Format                                   : PGS
  135. Muxing mode                              : zlib
  136. Codec ID                                 : S_HDMV/PGS
  137. Codec ID/Info                            : Picture based subtitle format used on BDs/HD-DVDs
  138. Duration                                 : 1 h 48 min
  139. Bit rate                                 : 18.7 kb/s
  140. Count of elements                        : 2656
  141. Stream size                              : 14.4 MiB (0%)
  142. Title                                    : Arabic-PGS
  143. Language                                 : Arabic
  144. Default                                  : No
  145. Forced                                   : No

  146. Text #5
  147. ID                                       : 9
  148. Format                                   : PGS
  149. Muxing mode                              : zlib
  150. Codec ID                                 : S_HDMV/PGS
  151. Codec ID/Info                            : Picture based subtitle format used on BDs/HD-DVDs
  152. Duration                                 : 1 h 52 min
  153. Bit rate                                 : 27.5 kb/s
  154. Count of elements                        : 2662
  155. Stream size                              : 22.0 MiB (0%)
  156. Title                                    : Chinese-PGS
  157. Language                                 : Chinese
  158. Default                                  : No
  159. Forced                                   : No

  160. Text #6
  161. ID                                       : 10
  162. Format                                   : PGS
  163. Muxing mode                              : zlib
  164. Codec ID                                 : S_HDMV/PGS
  165. Codec ID/Info                            : Picture based subtitle format used on BDs/HD-DVDs
  166. Duration                                 : 1 h 48 min
  167. Bit rate                                 : 22.0 kb/s
  168. Count of elements                        : 1622
  169. Stream size                              : 17.0 MiB (0%)
  170. Title                                    : Danish-PGS
  171. Language                                 : Danish
  172. Default                                  : No
  173. Forced                                   : No

  174. Text #7
  175. ID                                       : 11
  176. Format                                   : PGS
  177. Muxing mode                              : zlib
  178. Codec ID                                 : S_HDMV/PGS
  179. Codec ID/Info                            : Picture based subtitle format used on BDs/HD-DVDs
  180. Duration                                 : 1 h 48 min
  181. Bit rate                                 : 22.9 kb/s
  182. Count of elements                        : 1582
  183. Stream size                              : 17.7 MiB (0%)
  184. Title                                    : Dutch-PGS
  185. Language                                 : Dutch
  186. Default                                  : No
  187. Forced                                   : No

  188. Text #8
  189. ID                                       : 12
  190. Format                                   : PGS
  191. Muxing mode                              : zlib
  192. Codec ID                                 : S_HDMV/PGS
  193. Codec ID/Info                            : Picture based subtitle format used on BDs/HD-DVDs
  194. Duration                                 : 1 h 48 min
  195. Bit rate                                 : 27.0 kb/s
  196. Count of elements                        : 2016
  197. Stream size                              : 20.8 MiB (0%)
  198. Title                                    : Finnish-PGS
  199. Language                                 : Finnish
  200. Default                                  : No
  201. Forced                                   : No

  202. Text #9
  203. ID                                       : 13
  204. Format                                   : PGS
  205. Muxing mode                              : zlib
  206. Codec ID                                 : S_HDMV/PGS
  207. Codec ID/Info                            : Picture based subtitle format used on BDs/HD-DVDs
  208. Duration                                 : 1 h 52 min
  209. Bit rate                                 : 27.9 kb/s
  210. Count of elements                        : 2570
  211. Stream size                              : 22.4 MiB (0%)
  212. Title                                    : French-PGS
  213. Language                                 : French
  214. Default                                  : No
  215. Forced                                   : No

  216. Text #10
  217. ID                                       : 14
  218. Format                                   : PGS
  219. Muxing mode                              : zlib
  220. Codec ID                                 : S_HDMV/PGS
  221. Codec ID/Info                            : Picture based subtitle format used on BDs/HD-DVDs
  222. Duration                                 : 1 h 52 min
  223. Bit rate                                 : 35.9 kb/s
  224. Count of elements                        : 2666
  225. Stream size                              : 28.8 MiB (0%)
  226. Title                                    : German-PGS
  227. Language                                 : German
  228. Default                                  : No
  229. Forced                                   : No

  230. Text #11
  231. ID                                       : 15
  232. Format                                   : PGS
  233. Muxing mode                              : zlib
  234. Codec ID                                 : S_HDMV/PGS
  235. Codec ID/Info                            : Picture based subtitle format used on BDs/HD-DVDs
  236. Duration                                 : 1 h 52 min
  237. Bit rate                                 : 34.5 kb/s
  238. Count of elements                        : 2676
  239. Stream size                              : 27.7 MiB (0%)
  240. Title                                    : Icelandic-PGS
  241. Language                                 : Icelandic
  242. Default                                  : No
  243. Forced                                   : No

  244. Text #12
  245. ID                                       : 16
  246. Format                                   : PGS
  247. Muxing mode                              : zlib
  248. Codec ID                                 : S_HDMV/PGS
  249. Codec ID/Info                            : Picture based subtitle format used on BDs/HD-DVDs
  250. Duration                                 : 1 h 52 min
  251. Bit rate                                 : 30.6 kb/s
  252. Count of elements                        : 2668
  253. Stream size                              : 24.5 MiB (0%)
  254. Title                                    : Italian-PGS
  255. Language                                 : Italian
  256. Default                                  : No
  257. Forced                                   : No

  258. Text #13
  259. ID                                       : 17
  260. Format                                   : PGS
  261. Muxing mode                              : zlib
  262. Codec ID                                 : S_HDMV/PGS
  263. Codec ID/Info                            : Picture based subtitle format used on BDs/HD-DVDs
  264. Duration                                 : 1 h 52 min
  265. Bit rate                                 : 22.7 kb/s
  266. Count of elements                        : 2686
  267. Stream size                              : 18.2 MiB (0%)
  268. Title                                    : Korean-PGS
  269. Language                                 : Korean
  270. Default                                  : No
  271. Forced                                   : No

  272. Text #14
  273. ID                                       : 18
  274. Format                                   : PGS
  275. Muxing mode                              : zlib
  276. Codec ID                                 : S_HDMV/PGS
  277. Codec ID/Info                            : Picture based subtitle format used on BDs/HD-DVDs
  278. Duration                                 : 1 h 48 min
  279. Bit rate                                 : 20.9 kb/s
  280. Count of elements                        : 1612
  281. Stream size                              : 16.1 MiB (0%)
  282. Title                                    : Norwegian-PGS
  283. Language                                 : Norwegian
  284. Default                                  : No
  285. Forced                                   : No

  286. Text #15
  287. ID                                       : 19
  288. Format                                   : PGS
  289. Muxing mode                              : zlib
  290. Codec ID                                 : S_HDMV/PGS
  291. Codec ID/Info                            : Picture based subtitle format used on BDs/HD-DVDs
  292. Duration                                 : 1 h 48 min
  293. Bit rate                                 : 28.6 kb/s
  294. Count of elements                        : 2428
  295. Stream size                              : 22.1 MiB (0%)
  296. Title                                    : Portuguese-PGS
  297. Language                                 : Portuguese
  298. Default                                  : No
  299. Forced                                   : No

  300. Text #16
  301. ID                                       : 20
  302. Format                                   : PGS
  303. Muxing mode                              : zlib
  304. Codec ID                                 : S_HDMV/PGS
  305. Codec ID/Info                            : Picture based subtitle format used on BDs/HD-DVDs
  306. Duration                                 : 1 h 52 min
  307. Bit rate                                 : 24.8 kb/s
  308. Count of elements                        : 2666
  309. Stream size                              : 19.9 MiB (0%)
  310. Title                                    : Spanish-PGS
  311. Language                                 : Spanish
  312. Default                                  : No
  313. Forced                                   : No

  314. Text #17
  315. ID                                       : 21
  316. Format                                   : PGS
  317. Muxing mode                              : zlib
  318. Codec ID                                 : S_HDMV/PGS
  319. Codec ID/Info                            : Picture based subtitle format used on BDs/HD-DVDs
  320. Duration                                 : 1 h 48 min
  321. Bit rate                                 : 29.4 kb/s
  322. Count of elements                        : 2386
  323. Stream size                              : 22.7 MiB (0%)
  324. Title                                    : Spanish-PGS
  325. Language                                 : Spanish
  326. Default                                  : No
  327. Forced                                   : No

  328. Text #18
  329. ID                                       : 22
  330. Format                                   : PGS
  331. Muxing mode                              : zlib
  332. Codec ID                                 : S_HDMV/PGS
  333. Codec ID/Info                            : Picture based subtitle format used on BDs/HD-DVDs
  334. Duration                                 : 1 h 52 min
  335. Bit rate                                 : 21.2 kb/s
  336. Count of elements                        : 1592
  337. Stream size                              : 17.0 MiB (0%)
  338. Title                                    : Swedish-PGS
  339. Language                                 : Swedish
  340. Default                                  : No
  341. Forced                                   : No

  342. Text #19
  343. ID                                       : 23
  344. Format                                   : PGS
  345. Muxing mode                              : zlib
  346. Codec ID                                 : S_HDMV/PGS
  347. Codec ID/Info                            : Picture based subtitle format used on BDs/HD-DVDs
  348. Duration                                 : 1 h 52 min
  349. Bit rate                                 : 26.1 kb/s
  350. Count of elements                        : 2660
  351. Stream size                              : 20.9 MiB (0%)
  352. Title                                    : Thai-PGS
  353. Language                                 : Thai
  354. Default                                  : No
  355. Forced                                   : No

  356. Text #20
  357. ID                                       : 24
  358. Format                                   : PGS
  359. Muxing mode                              : zlib
  360. Codec ID                                 : S_HDMV/PGS
  361. Codec ID/Info                            : Picture based subtitle format used on BDs/HD-DVDs
  362. Duration                                 : 1 h 52 min
  363. Bit rate                                 : 28.5 kb/s
  364. Count of elements                        : 2644
  365. Stream size                              : 22.9 MiB (0%)
  366. Title                                    : Turkish-PGS
  367. Language                                 : Turkish
  368. Default                                  : No
  369. Forced                                   : No

  370. Menu
  371. 00:00:00.000                             : en:Start
  372. 00:00:52.844                             : en:South Central
  373. 00:03:11.817                             : en:Mr. Styles
  374. 00:05:03.553                             : en:The Agreement
  375. 00:07:10.138                             : en:"You Got Him"
  376. 00:12:14.609                             : en:House Rules
  377. 00:14:06.846                             : en:Burglary
  378. 00:17:30.383                             : en:The Neighbors
  379. 00:20:13.838                             : en:With Chris
  380. 00:24:53.951                             : en:Facts Of Life
  381. 00:28:59.279                             : en:Seven Years Later
  382. 00:37:52.395                             : en:Not Old, Better
  383. 00:41:19.769                             : en:Tisha
  384. 00:44:15.361                             : en:"I Lied To Pops"
  385. 00:49:49.153                             : en:Mama Calls
  386. 00:55:08.347                             : en:Lewis Crump
  387. 01:00:52.315                             : en:S.A.T. Test
  388. 01:02:15.231                             : en:Furious
  389. 01:06:54.427                             : en:On Crenshaw
  390. 01:11:42.632                             : en:Pulled Over
  391. 01:13:54.013                             : en:With Brandi
  392. 01:17:49.874                             : en:Miss Deveroux
  393. 01:20:52.556                             : en:Doughboy & Ricky
  394. 01:25:58.320                             : en:Cut
  395. 01:28:02.486                             : en:Gang Shooting
  396. 01:32:34.090                             : en:"Give Me The Gun"
  397. 01:36:02.966                             : en:Getting Even
  398. 01:42:37.568                             : en:Next Morning
  399. 01:48:03.644                             : en:End Credits
复制代码

街区男孩/头巾少年 Boyz.n.the.Hood.1991.2160p.BluRay.x264.8bit.SDR.DTS-HD.MA.TrueHD.7.1.Atmos-SWTYBLZ 55.92GB-2.png 街区男孩/头巾少年 Boyz.n.the.Hood.1991.2160p.BluRay.x264.8bit.SDR.DTS-HD.MA.TrueHD.7.1.Atmos-SWTYBLZ 55.92GB-3.png 街区男孩/头巾少年 Boyz.n.the.Hood.1991.2160p.BluRay.x264.8bit.SDR.DTS-HD.MA.TrueHD.7.1.Atmos-SWTYBLZ 55.92GB-4.png 街区男孩/头巾少年 Boyz.n.the.Hood.1991.2160p.BluRay.x264.8bit.SDR.DTS-HD.MA.TrueHD.7.1.Atmos-SWTYBLZ 55.92GB-5.png 街区男孩/头巾少年 Boyz.n.the.Hood.1991.2160p.BluRay.x264.8bit.SDR.DTS-HD.MA.TrueHD.7.1.Atmos-SWTYBLZ 55.92GB-6.png 街区男孩/头巾少年 Boyz.n.the.Hood.1991.2160p.BluRay.x264.8bit.SDR.DTS-HD.MA.TrueHD.7.1.Atmos-SWTYBLZ 55.92GB-7.png 街区男孩/头巾少年 Boyz.n.the.Hood.1991.2160p.BluRay.x264.8bit.SDR.DTS-HD.MA.TrueHD.7.1.Atmos-SWTYBLZ 55.92GB-8.png 街区男孩/头巾少年 Boyz.n.the.Hood.1991.2160p.BluRay.x264.8bit.SDR.DTS-HD.MA.TrueHD.7.1.Atmos-SWTYBLZ 55.92GB-1.png






回复

使用道具 举报

蓝光币
69
发表于 2020-2-1 17:48:40 | 显示全部楼层
蓝光电影网不错
回复 支持 反对

使用道具 举报

蓝光币
12
发表于 2020-2-2 15:18:31 | 显示全部楼层
开通VIP免费下载本站所有资源
回复 支持 反对

使用道具 举报

蓝光币
1660
发表于 2020-2-3 13:23:31 | 显示全部楼层

既然你诚信诚意的推荐了,那我就勉为其难的看看吧!蓝光电影网不走平凡路。
回复 支持 反对

使用道具 举报

懒得打字嘛,点击右侧快捷回复 【右侧内容,后台自定义】
您需要登录后才可以回帖 登录 | 立即加入

本版积分规则

Archiver|小黑屋| 蓝光电影网 |网站地图

Copyright © 2021 Comsenz Inc. Powered by 蓝光电影网

蓝光电影网

本站内容由用户自主分享和转载自互联网,转载目的在于传递更多信息,并不代表本网赞同其观点和对其真实性负责。

如有侵权、违反国家法律政策行为,请联系我们,我们会第一时间及时清除和处理!

举报反馈邮箱:[email protected]

快速回复 返回顶部 返回列表