找回密码

蓝光电影网

查看: 387|回复: 2

[剧情] 金臂童 The.Kid.With.The.Golden.Arm.1979.CHINESE.1080p.BluRay.x264.DTS-FGT 7.05GB

[复制链接]
蓝光币
1020
发表于 2020-2-1 15:06:53 | 显示全部楼层 |阅读模式
金臂童 The.Kid.With.The.Golden.Arm.1979.CHINESE.1080p.BluRay.x264.DTS-FGT 7.05GB-1.png

译  名 The Kid with the Golden Arm
片  名 金臂童
年  代 1979
产  地 中国香港
类  别 剧情 / 行动
语  言 汉语普通话
上映日期 1979-11-02
IMDb评分  7.1/10 from 1187 users
IMDb链接  https://www.imdb.com/title/tt0079372
豆瓣评分 6.6/10 from 429 users
豆瓣链接 https://movie.douban.com/subject/1307296/
片  长 86 分钟
导  演 张彻
编  剧 张彻 / 倪匡
主  演 孙建
       罗莽
       潘冰嫦
       江生
       鹿峰
       郭追


标  签 邵氏 | 张彻 | 香港 | 武侠 | 香港电影 | 郭追 | 罗莽 | 江生

简  介  

  本功夫片由張徹導演,並與倪匡聯手編劇。故事講述虎威鏢局總鏢頭楊虎雲(孫建 飾)受官府之託,押運二十萬兩黃金赴黃河流域賬災,武林豪傑「短斧」方十(江生 飾)、「冷月劍」冷鳳(潘冰嫦 飾)等紛紛前來助陣。當時「七殺谷」中一批武功高強的劇盜,金臂童(羅莽 飾)、銀槍子(鹿峰 飾)等早就佈署截劫詭計,鏢隊幸得「千面神捕」海濤(郭追 飾)沿途黑暗脱手互助,化險為夷……
  1. Video
  2. ID                                       : 1
  3. Format                                   : AVC
  4. Format/Info                              : Advanced Video Codec
  5. Format profile                           : [email protected]
  6. Format settings                          : CABAC / 4 Ref Frames
  7. Format settings, CABAC                   : Yes
  8. Format settings, Reference frames        : 4 frames
  9. Codec ID                                 : V_MPEG4/ISO/AVC
  10. Duration                                 : 1 h 25 min
  11. Bit rate                                 : 11.5 Mb/s
  12. Width                                    : 1 920 pixels
  13. Height                                   : 812 pixels
  14. Display aspect ratio                     : 2.35:1
  15. Frame rate mode                          : Constant
  16. Frame rate                               : 23.976 (24000/1001) FPS
  17. Color space                              : YUV
  18. Chroma subsampling                       : 4:2:0
  19. Bit depth                                : 8 bits
  20. Scan type                                : Progressive
  21. Bits/(Pixel*Frame)                       : 0.308
  22. Stream size                              : 6.82 GiB (97%)
  23. Title                                    : The.Kid.With.The.Golden.Arm.1979.CHINESE.1080p.BluRay.x264.DTS-FGT
  24. Writing library                          : x264 core 148 r2748 97eaef2
  25. Encoding settings                        : cabac=1 / ref=4 / deblock=1:-2:-2 / analyse=0x3:0x113 / me=umh / subme=9 / psy=1 / psy_rd=1.00:0.15 / mixed_ref=1 / me_range=16 / chroma_me=1 / trellis=2 / 8x8dct=1 / cqm=0 / deadzone=21,11 / fast_pskip=1 / chroma_qp_offset=-3 / threads=24 / lookahead_threads=3 / sliced_threads=0 / nr=0 / decimate=1 / interlaced=0 / bluray_compat=0 / constrained_intra=0 / bframes=3 / b_pyramid=2 / b_adapt=1 / b_bias=0 / direct=3 / weightb=1 / open_gop=0 / weightp=2 / keyint=250 / keyint_min=25 / scenecut=40 / intra_refresh=0 / rc_lookahead=50 / rc=2pass / mbtree=1 / bitrate=11500 / ratetol=1.0 / qcomp=0.60 / qpmin=0 / qpmax=69 / qpstep=4 / cplxblur=20.0 / qblur=0.5 / vbv_maxrate=31250 / vbv_bufsize=31250 / nal_hrd=none / filler=0 / ip_ratio=1.40 / aq=1:1.00
  26. Language                                 : Chinese
  27. Default                                  : Yes
  28. Forced                                   : No

  29. Audio
  30. ID                                       : 2
  31. Format                                   : DTS
  32. Format/Info                              : Digital Theater Systems
  33. Codec ID                                 : A_DTS
  34. Duration                                 : 1 h 24 min
  35. Bit rate mode                            : Constant
  36. Bit rate                                 : 384 kb/s
  37. Channel(s)                               : 2 channels
  38. Channel layout                           : L R
  39. Sampling rate                            : 48.0 kHz
  40. Frame rate                               : 93.750 FPS (512 SPF)
  41. Bit depth                                : 16 bits
  42. Compression mode                         : Lossy
  43. Stream size                              : 233 MiB (3%)
  44. Title                                    : The.Kid.With.The.Golden.Arm.1979.CHINESE.1080p.BluRay.x264.DTS-FGT
  45. Language                                 : Chinese
  46. Default                                  : Yes
  47. Forced                                   : No

  48. Text
  49. ID                                       : 3
  50. Format                                   : UTF-8
  51. Codec ID                                 : S_TEXT/UTF8
  52. Codec ID/Info                            : UTF-8 Plain Text
  53. Duration                                 : 1 h 24 min
  54. Bit rate                                 : 34 b/s
  55. Count of elements                        : 747
  56. Stream size                              : 21.6 KiB (0%)
  57. Language                                 : English
  58. Default                                  : Yes
  59. Forced                                   : No

  60. Menu
  61. 00:00:00.000                             : en:Chapter 01
  62. 00:07:20.899                             : en:Chapter 02
  63. 00:10:00.558                             : en:Chapter 03
  64. 00:18:23.477                             : en:Chapter 04
  65. 00:24:20.084                             : en:Chapter 05
  66. 00:32:57.767                             : en:Chapter 06
  67. 00:41:40.164                             : en:Chapter 07
  68. 00:48:48.884                             : en:Chapter 08
  69. 00:56:17.875                             : en:Chapter 09
  70. 01:02:04.095                             : en:Chapter 10
  71. 01:08:27.103                             : en:Chapter 11
  72. 01:15:37.283                             : en:Chapter 12
复制代码

金臂童 The.Kid.With.The.Golden.Arm.1979.CHINESE.1080p.BluRay.x264.DTS-FGT 7.05GB-2.png 金臂童 The.Kid.With.The.Golden.Arm.1979.CHINESE.1080p.BluRay.x264.DTS-FGT 7.05GB-3.png 金臂童 The.Kid.With.The.Golden.Arm.1979.CHINESE.1080p.BluRay.x264.DTS-FGT 7.05GB-4.png






回复

使用道具 举报

懒得打字嘛,点击右侧快捷回复 【右侧内容,后台自定义】
您需要登录后才可以回帖 登录 | 立即加入

本版积分规则

Archiver|小黑屋| 蓝光电影网 |网站地图

Copyright © 2021 Comsenz Inc. Powered by 蓝光电影网

蓝光电影网

本站内容由用户自主分享和转载自互联网,转载目的在于传递更多信息,并不代表本网赞同其观点和对其真实性负责。

如有侵权、违反国家法律政策行为,请联系我们,我们会第一时间及时清除和处理!

举报反馈邮箱:[email protected]

快速回复 返回顶部 返回列表