找回密码

蓝光电影网

查看: 524|回复: 3

[剧情] 茶泡饭之味 The.Flavor.Of.Green.Tea.Over.Rice.1952.CRITERION.JAPANESE.1080p.BluRay.x264.DTS-FGT 9.94GB

[复制链接]
蓝光币
1022
发表于 2020-2-1 15:08:51 | 显示全部楼层 |阅读模式
茶泡饭之味 The.Flavor.Of.Green.Tea.Over.Rice.1952.CRITERION.JAPANESE.1080p.BluRay.x264.DTS-FGT 9.94GB-1.png

译  名 茶泡饭之味 / Flavor of Green Tea Over Rice / 茶泡饭的滋味
片  名 お茶漬の味
年  代 1952
产  地 日本
类  别 剧情 / 家庭
语  言 日语
上映日期 1952-10-01(日本)
IMDb评分  7.7/10 from 2052 users
IMDb链接  https://www.imdb.com/title/tt0044982
豆瓣评分 8.2/10 from 4312 users
豆瓣链接 https://movie.douban.com/subject/1306183/
片  长 115分钟
导  演 小津安二郎
编  剧 野田高梧 / 小津安二郎
主  演 木暮实千代
       鹤田浩二
       佐分利信
       淡岛千景
       笠智众


标  签 小津安二郎 | 日本 | 日本电影 | 家庭 | 1952 | 1950s | 文艺 | 茶泡饭之味

简  介  

  身世信州农村的佐竹茂吉(佐分利信 饰)与身世上流社会的千金蜜斯妙子(目暮实千代 饰)成婚,七、八年的婚姻生活并未弥合二人原本身世的差异,反而因生活习惯的差别使他们之间冲突丛生。佐竹生活上不修容貌,抽廉价烟,吃茶泡饭,坐三等车箱。妙子受不了丈夫的“低级”生活习惯,经常背着他和门生时代的好友出玩游乐。
  两人的冲突在对侄女亲事的看法上激化,妙子不辞而别,跑去神户同学处散心。佐竹忽然接到赴南美公干的使命,收到电报赶回的妙子发现家里已空无一人。当她终究感应失落时,飞机耽搁改成越日动身的佐竹却回抵家中,夫妻二人共进一顿别样滋味的茶泡饭……
  1. Video
  2. ID                                       : 1
  3. Format                                   : AVC
  4. Format/Info                              : Advanced Video Codec
  5. Format profile                           : [email protected]
  6. Format settings                          : CABAC / 4 Ref Frames
  7. Format settings, CABAC                   : Yes
  8. Format settings, Reference frames        : 4 frames
  9. Codec ID                                 : V_MPEG4/ISO/AVC
  10. Duration                                 : 1 h 55 min
  11. Bit rate                                 : 11.5 Mb/s
  12. Width                                    : 1 484 pixels
  13. Height                                   : 1 080 pixels
  14. Display aspect ratio                     : 1.374
  15. Frame rate mode                          : Constant
  16. Frame rate                               : 23.976 (24000/1001) FPS
  17. Color space                              : YUV
  18. Chroma subsampling                       : 4:2:0
  19. Bit depth                                : 8 bits
  20. Scan type                                : Progressive
  21. Bits/(Pixel*Frame)                       : 0.299
  22. Stream size                              : 9.31 GiB (94%)
  23. Title                                    : The.Flavor.Of.Green.Tea.Over.Rice.1952.CRITERION.JAPANESE.1080p.BluRay.x264.DTS-FGT
  24. Writing library                          : x264 core 148 r2748 97eaef2
  25. Encoding settings                        : cabac=1 / ref=4 / deblock=1:-2:-2 / analyse=0x3:0x113 / me=umh / subme=9 / psy=1 / psy_rd=1.00:0.15 / mixed_ref=1 / me_range=16 / chroma_me=1 / trellis=2 / 8x8dct=1 / cqm=0 / deadzone=21,11 / fast_pskip=1 / chroma_qp_offset=-3 / threads=24 / lookahead_threads=3 / sliced_threads=0 / nr=0 / decimate=1 / interlaced=0 / bluray_compat=0 / constrained_intra=0 / bframes=3 / b_pyramid=2 / b_adapt=1 / b_bias=0 / direct=3 / weightb=1 / open_gop=0 / weightp=2 / keyint=250 / keyint_min=25 / scenecut=40 / intra_refresh=0 / rc_lookahead=50 / rc=2pass / mbtree=1 / bitrate=11500 / ratetol=1.0 / qcomp=0.60 / qpmin=0 / qpmax=69 / qpstep=4 / cplxblur=20.0 / qblur=0.5 / vbv_maxrate=31250 / vbv_bufsize=31250 / nal_hrd=none / filler=0 / ip_ratio=1.40 / aq=1:1.00
  26. Language                                 : Japanese
  27. Default                                  : Yes
  28. Forced                                   : No

  29. Audio
  30. ID                                       : 2
  31. Format                                   : DTS
  32. Format/Info                              : Digital Theater Systems
  33. Codec ID                                 : A_DTS
  34. Duration                                 : 1 h 55 min
  35. Bit rate mode                            : Constant
  36. Bit rate                                 : 768 kb/s
  37. Channel(s)                               : 1 channel
  38. Channel layout                           : C
  39. Sampling rate                            : 48.0 kHz
  40. Frame rate                               : 93.750 FPS (512 SPF)
  41. Bit depth                                : 24 bits
  42. Compression mode                         : Lossy
  43. Stream size                              : 637 MiB (6%)
  44. Title                                    : The.Flavor.Of.Green.Tea.Over.Rice.1952.CRITERION.JAPANESE.1080p.BluRay.x264.DTS-FGT
  45. Language                                 : Japanese
  46. Default                                  : Yes
  47. Forced                                   : No

  48. Text
  49. ID                                       : 3
  50. Format                                   : UTF-8
  51. Codec ID                                 : S_TEXT/UTF8
  52. Codec ID/Info                            : UTF-8 Plain Text
  53. Duration                                 : 1 h 55 min
  54. Bit rate                                 : 39 b/s
  55. Count of elements                        : 1303
  56. Stream size                              : 33.3 KiB (0%)
  57. Language                                 : English
  58. Default                                  : Yes
  59. Forced                                   : No

  60. Menu
  61. 00:00:00.000                             : en:Excuses for hot springs
  62. 00:08:52.614                             : en:Is it a planned failure?
  63. 00:18:08.128                             : en:At Shuzenji
  64. 00:25:45.168                             : en:"Insensitive"
  65. 00:29:27.264                             : en:Setsuko\'s matchmaking story
  66. 00:35:48.444                             : en:Reunion with a war friend
  67. 00:45:42.781                             : en:No match!
  68. 00:54:37.773                             : en:Talking opinion
  69. 01:05:05.401                             : en:Couple\'s quarrel
  70. 01:16:35.590                             : en:Taeko to Kobe
  71. 01:27:18.232                             : en:Mokichi goes to Uruguay
  72. 01:36:23.277                             : en:What is the taste of Ochazuke?
  73. 01:49:50.083                             : en:And new lovers
复制代码

茶泡饭之味 The.Flavor.Of.Green.Tea.Over.Rice.1952.CRITERION.JAPANESE.1080p.BluRay.x264.DTS-FGT 9.94GB-2.png 茶泡饭之味 The.Flavor.Of.Green.Tea.Over.Rice.1952.CRITERION.JAPANESE.1080p.BluRay.x264.DTS-FGT 9.94GB-3.png 茶泡饭之味 The.Flavor.Of.Green.Tea.Over.Rice.1952.CRITERION.JAPANESE.1080p.BluRay.x264.DTS-FGT 9.94GB-4.png






回复

使用道具 举报

蓝光币
1644
发表于 2020-2-2 14:11:29 | 显示全部楼层
楼主发贴辛苦了,谢谢楼主分享!我觉得蓝光电影网是注册对了!
回复 支持 反对

使用道具 举报

懒得打字嘛,点击右侧快捷回复 【右侧内容,后台自定义】
您需要登录后才可以回帖 登录 | 立即加入

本版积分规则

Archiver|小黑屋| 蓝光电影网 |网站地图

Copyright © 2021 Comsenz Inc. Powered by 蓝光电影网

蓝光电影网

本站内容由用户自主分享和转载自互联网,转载目的在于传递更多信息,并不代表本网赞同其观点和对其真实性负责。

如有侵权、违反国家法律政策行为,请联系我们,我们会第一时间及时清除和处理!

举报反馈邮箱:[email protected]

快速回复 返回顶部 返回列表