找回密码

蓝光电影网

查看: 535|回复: 8

[剧情] 我的男人 My.Man.2014.JAPANESE.1080p.BluRay.x264-iKiW 11.42GB

[复制链接]
蓝光币
1020
发表于 2020-2-1 15:11:40 | 显示全部楼层 |阅读模式
我的汉子 My.Man.2014.JAPANESE.1080p.BluRay.x264-iKiW 11.42GB-1.png

译  名 我的汉子 / My Man / 养欲之恩(港)
片  名 私の男
年  代 2014
产  地 日本
类  别 剧情 / 恋爱
语  言 日语
上映日期 2014-06-14(日本)
IMDb评分  6.3/10 from 513 users
IMDb链接  https://www.imdb.com/title/tt2763746
豆瓣评分 6.6/10 from 5042 users
豆瓣链接 https://movie.douban.com/subject/21767208/
片  长 129分钟
导  演 熊切和嘉 Kazuyoshi Kumakiri
编  剧 宇治田隆史 Takashi Ujita / 桜庭一樹(原作)
主  演 浅野忠信 Tadanobu Asano
       二阶堂富美 Fumi Nikaidou
       茂吕师冈 Moro Morooka
       河井青叶 Aoba Kawai
       三浦诚己 Masaki Miura
       广冈由里子 Yuriko Hiro'oka
       安藤玉惠 Tamae And?
       竹原皮斯托 Pistol Takehara
       太贺 Taiga
       相乐树 Sagara Itsuki
       康巢恩 Suon Kan
       吉本菜穂子
       松山爱里 Airi Matsuyama
       奥瀬繁
       吉村実子
       三浦贵大 Takahiro Miura
       高良健吾 Kengo Kora
       藤龙也 Tatsuya Fuji


标  签 日本 | 日本电影 | 浅野忠信 | 恋爱 | 2014 | 二階堂ふみ | 伦理 | 熊切和嘉

简  介  

  女孩小花(二阶堂富美 饰)在大地震中落空了一切的亲人,救生员淳悟(浅野忠信 饰)收留了无家可归的小花,没有血缘关系的两人组成了家庭。一晃眼多年曩昔,小花已经出完工为了亭亭玉立的少女,淳悟也有了女友(河井青叶 饰),可是后者却发现,在淳悟和小花之间,一种怪僻而又诡异的豪情 以没法停止的速度暗自觉展着。
  小花乖戾而又散发着少女甜蜜的气味,淳悟自闭在深入冗长的孤独里沉沉浮浮,终究,原本应当只是纯真的家人的两人,冲破了道德的界限,双双被沉没在愿望的冰海当中。小花和淳悟,如同共生的动物一样,靠着本能在黑私下贪心的存在世,直到有一天,两人的奥秘被圈外人发现。

获奖情况  

  第38届日本电影学院奖(2015)
  最好女配角(提名) 二阶堂富美

  第9届亚洲电影大奖(2015)
  最好摄影(提名) 近藤龙人
  1. Video
  2. ID                                       : 1
  3. Format                                   : AVC
  4. Format/Info                              : Advanced Video Codec
  5. Format profile                           : [email protected]
  6. Format settings                          : CABAC / 5 Ref Frames
  7. Format settings, CABAC                   : Yes
  8. Format settings, Reference frames        : 5 frames
  9. Codec ID                                 : V_MPEG4/ISO/AVC
  10. Duration                                 : 2 h 9 min
  11. Bit rate                                 : 12.0 Mb/s
  12. Width                                    : 1 920 pixels
  13. Height                                   : 800 pixels
  14. Display aspect ratio                     : 2.40:1
  15. Frame rate mode                          : Constant
  16. Frame rate                               : 23.976 (24000/1001) FPS
  17. Color space                              : YUV
  18. Chroma subsampling                       : 4:2:0
  19. Bit depth                                : 8 bits
  20. Scan type                                : Progressive
  21. Bits/(Pixel*Frame)                       : 0.326
  22. Stream size                              : 10.8 GiB (95%)
  23. Writing library                          : x264 core 129 r2245+704+36 8e61944 tMod+MixAQ [[email protected]:2:0 X86_64]
  24. Encoding settings                        : cabac=1 / ref=5 / deblock=1:-3:-3 / analyse=0x3:0x133 / me=umh / subme=11 / psy=1 / fade_compensate=0.00 / psy_rd=1.05:0.10 / mixed_ref=1 / me_range=64 / chroma_me=1 / trellis=2 / 8x8dct=1 / cqm=0 / deadzone=21,11 / fast_pskip=0 / chroma_qp_offset=-3 / threads=18 / lookahead_threads=3 / sliced_threads=0 / nr=0 / decimate=1 / interlaced=0 / bluray_compat=0 / constrained_intra=0 / fgo=0 / bframes=10 / b_pyramid=2 / b_adapt=2 / b_bias=0 / direct=3 / weightb=1 / open_gop=0 / weightp=2 / keyint=250 / keyint_min=23 / scenecut=40 / intra_refresh=0 / rc_lookahead=80 / rc=2pass / mbtree=1 / bitrate=12000 / ratetol=1.0 / qcomp=0.75 / qpmin=0 / qpmax=69 / qpstep=4 / cplxblur=20.0 / qblur=0.5 / ip_ratio=1.40 / aq=1 / aq-strength=0.80 / aq-sensitivity=10.00 / aq-ifactor=1.00 / aq-pfactor=1.00 / aq-bfactor=1.00 / aq2=0
  25. Language                                 : Japanese
  26. Default                                  : Yes
  27. Forced                                   : No

  28. Audio
  29. ID                                       : 2
  30. Format                                   : AC-3
  31. Format/Info                              : Audio Coding 3
  32. Commercial name                          : Dolby Digital
  33. Codec ID                                 : A_AC3
  34. Duration                                 : 2 h 9 min
  35. Bit rate mode                            : Constant
  36. Bit rate                                 : 640 kb/s
  37. Channel(s)                               : 6 channels
  38. Channel layout                           : L R C LFE Ls Rs
  39. Sampling rate                            : 48.0 kHz
  40. Frame rate                               : 31.250 FPS (1536 SPF)
  41. Bit depth                                : 16 bits
  42. Compression mode                         : Lossy
  43. Stream size                              : 591 MiB (5%)
  44. Language                                 : Japanese
  45. Service kind                             : Complete Main
  46. Default                                  : Yes
  47. Forced                                   : No

  48. Text #1
  49. ID                                       : 3
  50. Format                                   : UTF-8
  51. Codec ID                                 : S_TEXT/UTF8
  52. Codec ID/Info                            : UTF-8 Plain Text
  53. Duration                                 : 2 h 6 min
  54. Bit rate                                 : 16 b/s
  55. Count of elements                        : 729
  56. Stream size                              : 15.1 KiB (0%)
  57. Language                                 : English
  58. Default                                  : Yes
  59. Forced                                   : No

  60. Text #2
  61. ID                                       : 4
  62. Format                                   : ASS
  63. Codec ID                                 : S_TEXT/ASS
  64. Codec ID/Info                            : Advanced Sub Station Alpha
  65. Duration                                 : 2 h 9 min
  66. Bit rate                                 : 32 b/s
  67. Count of elements                        : 803
  68. Compression mode                         : Lossless
  69. Stream size                              : 30.9 KiB (0%)
  70. Title                                    : Simplified
  71. Language                                 : Chinese
  72. Default                                  : No
  73. Forced                                   : No

  74. Text #3
  75. ID                                       : 5
  76. Format                                   : ASS
  77. Codec ID                                 : S_TEXT/ASS
  78. Codec ID/Info                            : Advanced Sub Station Alpha
  79. Duration                                 : 2 h 9 min
  80. Bit rate                                 : 32 b/s
  81. Count of elements                        : 803
  82. Compression mode                         : Lossless
  83. Stream size                              : 30.9 KiB (0%)
  84. Title                                    : Traditional
  85. Language                                 : Chinese
  86. Default                                  : No
  87. Forced                                   : No

  88. Menu
  89. 00:00:00.000                             : en:00:00:00.000
  90. 00:07:40.793                             : en:00:07:40.793
  91. 00:13:56.126                             : en:00:13:56.126
  92. 00:22:32.267                             : en:00:22:32.267
  93. 00:32:50.259                             : en:00:32:50.259
  94. 00:39:23.486                             : en:00:39:23.486
  95. 00:45:08.956                             : en:00:45:08.956
  96. 00:52:55.338                             : en:00:52:55.338
  97. 01:03:56.707                             : en:01:03:56.707
  98. 01:08:51.127                             : en:01:08:51.127
  99. 01:18:09.684                             : en:01:18:09.684
  100. 01:24:42.577                             : en:01:24:42.577
  101. 01:27:00.215                             : en:01:27:00.215
  102. 01:38:11.302                             : en:01:38:11.302
  103. 01:46:23.710                             : en:01:46:23.710
  104. 01:57:22.285                             : en:01:57:22.285
  105. 02:05:17.510                             : en:02:05:17.510
  106. 02:09:07.740                             : en:02:09:07.740
复制代码

我的汉子 My.Man.2014.JAPANESE.1080p.BluRay.x264-iKiW 11.42GB-2.png 我的汉子 My.Man.2014.JAPANESE.1080p.BluRay.x264-iKiW 11.42GB-3.png 我的汉子 My.Man.2014.JAPANESE.1080p.BluRay.x264-iKiW 11.42GB-4.png






回复

使用道具 举报

蓝光币
115
发表于 2020-2-1 20:48:08 | 显示全部楼层
楼主发贴辛苦了,谢谢楼主分享!我觉得蓝光电影网是注册对了!
回复 支持 反对

使用道具 举报

蓝光币
619
发表于 2020-2-2 10:48:44 | 显示全部楼层

楼主,我太崇拜你了!我想我是一天也不能离开蓝光电影网
回复 支持 反对

使用道具 举报

懒得打字嘛,点击右侧快捷回复 【右侧内容,后台自定义】
您需要登录后才可以回帖 登录 | 立即加入

本版积分规则

Archiver|小黑屋| 蓝光电影网 |网站地图

Copyright © 2021 Comsenz Inc. Powered by 蓝光电影网

蓝光电影网

本站内容由用户自主分享和转载自互联网,转载目的在于传递更多信息,并不代表本网赞同其观点和对其真实性负责。

如有侵权、违反国家法律政策行为,请联系我们,我们会第一时间及时清除和处理!

举报反馈邮箱:[email protected]

快速回复 返回顶部 返回列表