找回密码

蓝光电影网

查看: 561|回复: 2

[剧情] 匹夫 Eastern.Bandits.2012.CHINESE.1080p.BluRay.x264.DTS-iKiW 13.43GB

[复制链接]
蓝光币
1020
发表于 2020-2-1 17:47:14 | 显示全部楼层 |阅读模式
匹夫 Eastern.Bandits.2012.CHINESE.1080p.BluRay.x264.DTS-iKiW 13.43GB-1.png

译  名 An Inaccurate Memoir / 匹夫们的战争 / 匹夫有责
片  名 匹夫
年  代 2012
产  地 中国大陆
类  别 剧情 / 行动 / 战争 / 西部
语  言 汉语普通话
上映日期 2012-04-23(中国大陆)
IMDb评分  5.4/10 from 178 users
IMDb链接  https://www.imdb.com/title/tt2400407
豆瓣评分 5.3/10 from 23003 users
豆瓣链接 https://movie.douban.com/subject/10508901/
片  长 105分钟
导  演 杨树鹏 Shupeng Yang
编  剧 杨树鹏 Shupeng Yang / 张小北  Xiaobei Zhang / 老晃 Lao Huang
主  演 黄晓明 Xiaoming Huang
       张译 Yi Zhang
       张歆艺 Xinyi Zhang
       王烈 Lie Wang
       包小柏 Tino Bao
       倪景阳 Jingyang Ni
       马志明 Zhiming Ma
       孙磊 Lei Sun
       张粤 Yue Zhang
       高群书 Qunshu Gao
       梁静 Jing Liang
       江珊 Shan Jiang
       李子雄 Waise Lee


标  签 中国 | 战争 | 行动 | 2012 | 黑色诙谐 | 热血 | 剧情 | 笑剧

简  介  

  抗日战争年月,一群亡命之徒集结在北方平原。他们在首领方有望(黄晓明 饰)率领下,建立了一个地下王国,常日掠夺为生。一日他们绑架了一个正去迎亲的新郎官高栋梁(张译 饰),出乎料想的是,高栋梁是个硬汉子,很快凭自己的血性和聪明征服了全部匪帮,成为“二当家”,他和首领之妹“小  姑奶奶”方梓珍(张歆艺 饰)发生豪情,又压服方有望前往匹敌日本侵犯者,从绑架来火线观察的“天皇弟弟”起头。经过一番经心策划,这群案底累累的无赖担起“匹夫之责”,凭仗手中兵器和血肉之躯,潜入日本人营地,试图搞出一番高文为……
  1. Video
  2. ID                                       : 1
  3. Format                                   : AVC
  4. Format/Info                              : Advanced Video Codec
  5. Format profile                           : [email protected]
  6. Format settings                          : CABAC / 5 Ref Frames
  7. Format settings, CABAC                   : Yes
  8. Format settings, Reference frames        : 5 frames
  9. Codec ID                                 : V_MPEG4/ISO/AVC
  10. Duration                                 : 1 h 46 min
  11. Bit rate                                 : 16.5 Mb/s
  12. Width                                    : 1 920 pixels
  13. Height                                   : 816 pixels
  14. Display aspect ratio                     : 2.35:1
  15. Frame rate mode                          : Constant
  16. Frame rate                               : 24.000 FPS
  17. Color space                              : YUV
  18. Chroma subsampling                       : 4:2:0
  19. Bit depth                                : 8 bits
  20. Scan type                                : Progressive
  21. Bits/(Pixel*Frame)                       : 0.439
  22. Stream size                              : 12.3 GiB (92%)
  23. Writing library                          : x264 core 124 r2197+666+28 3970b70 tMod+MixAQ [[email protected]:2:0 X86_64]
  24. Encoding settings                        : cabac=1 / ref=5 / deblock=1:-3:-2 / analyse=0x3:0x133 / me=umh / subme=11 / psy=1 / fade_compensate=0.00 / psy_rd=1.00:0.15 / mixed_ref=1 / me_range=64 / chroma_me=1 / trellis=2 / 8x8dct=1 / cqm=0 / deadzone=21,11 / fast_pskip=0 / chroma_qp_offset=-3 / threads=12 / sliced_threads=0 / nr=0 / decimate=1 / interlaced=0 / bluray_compat=0 / constrained_intra=0 / fgo=0 / bframes=8 / b_pyramid=2 / b_adapt=2 / b_bias=0 / direct=3 / weightb=1 / open_gop=0 / weightp=2 / keyint=250 / keyint_min=24 / scenecut=40 / intra_refresh=0 / rc_lookahead=80 / rc=2pass / mbtree=1 / bitrate=16500 / ratetol=1.0 / qcomp=0.70 / qpmin=0 / qpmax=69 / qpstep=4 / cplxblur=20.0 / qblur=0.5 / vbv_maxrate=50000 / vbv_bufsize=30000 / nal_hrd=none / ip_ratio=1.40 / aq=3 / aq-strength=0.75 / aq-sensitivity=10.00 / aq-ifactor=1.00 / aq-pfactor=1.00 / aq-bfactor=1.00 / aq2=0
  25. Language                                 : Chinese
  26. Default                                  : Yes
  27. Forced                                   : No
  28. Color range                              : Limited
  29. Matrix coefficients                      : BT.709

  30. Audio
  31. ID                                       : 2
  32. Format                                   : DTS
  33. Format/Info                              : Digital Theater Systems
  34. Codec ID                                 : A_DTS
  35. Duration                                 : 1 h 46 min
  36. Bit rate mode                            : Constant
  37. Bit rate                                 : 1 509 kb/s
  38. Channel(s)                               : 6 channels
  39. Channel layout                           : C L R Ls Rs LFE
  40. Sampling rate                            : 48.0 kHz
  41. Frame rate                               : 93.750 FPS (512 SPF)
  42. Bit depth                                : 16 bits
  43. Compression mode                         : Lossy
  44. Stream size                              : 1.13 GiB (8%)
  45. Title                                    : Mandarin
  46. Language                                 : Chinese
  47. Default                                  : Yes
  48. Forced                                   : No

  49. Text
  50. ID                                       : 3
  51. Format                                   : UTF-8
  52. Codec ID                                 : S_TEXT/UTF8
  53. Codec ID/Info                            : UTF-8 Plain Text
  54. Duration                                 : 1 h 40 min
  55. Bit rate                                 : 23 b/s
  56. Count of elements                        : 1033
  57. Stream size                              : 17.1 KiB (0%)
  58. Language                                 : English
  59. Default                                  : Yes
  60. Forced                                   : No

  61. Menu
  62. 00:00:00.000                             : en:00:00:00.000
  63. 00:06:22.750                             : en:00:06:22.750
  64. 00:16:56.417                             : en:00:16:56.417
  65. 00:24:51.958                             : en:00:24:51.958
  66. 00:37:45.208                             : en:00:37:45.208
  67. 00:43:58.500                             : en:00:43:58.500
  68. 00:56:28.042                             : en:00:56:28.042
  69. 01:09:46.125                             : en:01:09:46.125
  70. 01:20:21.875                             : en:01:20:21.875
  71. 01:27:22.292                             : en:01:27:22.292
  72. 01:41:15.042                             : en:01:41:15.042
复制代码

匹夫 Eastern.Bandits.2012.CHINESE.1080p.BluRay.x264.DTS-iKiW 13.43GB-2.png 匹夫 Eastern.Bandits.2012.CHINESE.1080p.BluRay.x264.DTS-iKiW 13.43GB-3.png 匹夫 Eastern.Bandits.2012.CHINESE.1080p.BluRay.x264.DTS-iKiW 13.43GB-4.png






回复

使用道具 举报

蓝光币
775
发表于 2020-2-1 21:05:17 | 显示全部楼层
谢谢楼主无私分享。
回复 支持 反对

使用道具 举报

蓝光币
103
发表于 2020-2-2 22:29:13 | 显示全部楼层
下载的人很少,不好看吗?
回复 支持 反对

使用道具 举报

懒得打字嘛,点击右侧快捷回复 【右侧内容,后台自定义】
您需要登录后才可以回帖 登录 | 立即加入

本版积分规则

Archiver|小黑屋| 蓝光电影网 |网站地图

Copyright © 2021 Comsenz Inc. Powered by 蓝光电影网

蓝光电影网

本站内容由用户自主分享和转载自互联网,转载目的在于传递更多信息,并不代表本网赞同其观点和对其真实性负责。

如有侵权、违反国家法律政策行为,请联系我们,我们会第一时间及时清除和处理!

举报反馈邮箱:[email protected]

快速回复 返回顶部 返回列表