找回密码

蓝光电影网

查看: 608|回复: 4

[剧情] 双生薄荷 Double.Mints.2017.JAPANESE.1080p.BluRay.x264.DTS-FGT 9.24GB

[复制链接]
蓝光币
1020
发表于 2020-2-1 17:48:14 | 显示全部楼层 |阅读模式
双生薄荷 Double.Mints.2017.JAPANESE.1080p.BluRay.x264.DTS-FGT 9.24GB-1.png

译  名 双生薄荷 / Double Mints
片  名 ダブルミンツ
年  代 2017
产  地 日本
类  别 剧情 / 同性
语  言 日语 / 韩语
上映日期 2017-06-03(日本)
IMDb评分  5.9/10 from 99 users
IMDb链接  https://www.imdb.com/title/tt6488382
豆瓣评分 6.9/10 from 2978 users
豆瓣链接 https://movie.douban.com/subject/26965856/
片  长 100分钟
导  演 内田英治 Eiji Uchida
编  剧 内田英治 Eiji Uchida / 中村明日美子 Asumiko Nakamura
主  演 渊上泰史 Yasushi Fuchikami
       田中俊介 Shunsuke Tanaka
       须贺健太 Kenta Suga
       川笼石骏平 Shunpei Kawagoishi
       富手麻妙 Ami Tomite
       毎熊克哉 Katsuya Maiguma
       一濑绫子 Ayako Ichinose
       川崎美海 Myu Kawasaki
       菅原大吉 Daikichi Sugawara
       高桥和也 Kazuya Takahashi
       小木茂光 Shigemitsu Ogi


标  签 日本 | 同性 | BL | 漫画改编 | 2017 | 同性爱 | 悬疑 | LGBT

简  介  

  《同级生》作者中村明日美子的耽美漫改新片。壹河光夫和市川光央从少年时代就构成了一个服从另一个号令的主仆关系,长大后的一件谋杀将指引他们再度交织。
  1. Video
  2. ID                                       : 1
  3. Format                                   : AVC
  4. Format/Info                              : Advanced Video Codec
  5. Format profile                           : [email protected]
  6. Format settings                          : CABAC / 4 Ref Frames
  7. Format settings, CABAC                   : Yes
  8. Format settings, Reference frames        : 4 frames
  9. Codec ID                                 : V_MPEG4/ISO/AVC
  10. Duration                                 : 1 h 41 min
  11. Bit rate                                 : 11.5 Mb/s
  12. Width                                    : 1 920 pixels
  13. Height                                   : 804 pixels
  14. Display aspect ratio                     : 2.40:1
  15. Frame rate mode                          : Constant
  16. Frame rate                               : 23.976 (24000/1001) FPS
  17. Color space                              : YUV
  18. Chroma subsampling                       : 4:2:0
  19. Bit depth                                : 8 bits
  20. Scan type                                : Progressive
  21. Bits/(Pixel*Frame)                       : 0.311
  22. Stream size                              : 8.17 GiB (88%)
  23. Title                                    : Double.Mints.2017.JAPANESE.1080p.BluRay.x264.DTS-FGT
  24. Writing library                          : x264 core 148 r2748 97eaef2
  25. Encoding settings                        : cabac=1 / ref=4 / deblock=1:-2:-2 / analyse=0x3:0x113 / me=umh / subme=9 / psy=1 / psy_rd=1.00:0.15 / mixed_ref=1 / me_range=16 / chroma_me=1 / trellis=2 / 8x8dct=1 / cqm=0 / deadzone=21,11 / fast_pskip=1 / chroma_qp_offset=-3 / threads=24 / lookahead_threads=3 / sliced_threads=0 / nr=0 / decimate=1 / interlaced=0 / bluray_compat=0 / constrained_intra=0 / bframes=3 / b_pyramid=2 / b_adapt=1 / b_bias=0 / direct=3 / weightb=1 / open_gop=0 / weightp=2 / keyint=250 / keyint_min=25 / scenecut=40 / intra_refresh=0 / rc_lookahead=50 / rc=2pass / mbtree=1 / bitrate=11500 / ratetol=1.0 / qcomp=0.60 / qpmin=0 / qpmax=69 / qpstep=4 / cplxblur=20.0 / qblur=0.5 / vbv_maxrate=31250 / vbv_bufsize=31250 / nal_hrd=none / filler=0 / ip_ratio=1.40 / aq=1:1.00
  26. Language                                 : Japanese
  27. Default                                  : Yes
  28. Forced                                   : No

  29. Audio
  30. ID                                       : 2
  31. Format                                   : DTS
  32. Format/Info                              : Digital Theater Systems
  33. Codec ID                                 : A_DTS
  34. Duration                                 : 1 h 41 min
  35. Bit rate mode                            : Constant
  36. Bit rate                                 : 1 509 kb/s
  37. Channel(s)                               : 6 channels
  38. Channel layout                           : C L R Ls Rs LFE
  39. Sampling rate                            : 48.0 kHz
  40. Frame rate                               : 93.750 FPS (512 SPF)
  41. Bit depth                                : 16 bits
  42. Compression mode                         : Lossy
  43. Stream size                              : 1.07 GiB (12%)
  44. Title                                    : Double.Mints.2017.JAPANESE.1080p.BluRay.x264.DTS-FGT
  45. Language                                 : Japanese
  46. Default                                  : Yes
  47. Forced                                   : No

  48. Text
  49. ID                                       : 3
  50. Format                                   : UTF-8
  51. Codec ID                                 : S_TEXT/UTF8
  52. Codec ID/Info                            : UTF-8 Plain Text
  53. Duration                                 : 1 h 35 min
  54. Bit rate                                 : 23 b/s
  55. Count of elements                        : 760
  56. Stream size                              : 16.2 KiB (0%)
  57. Language                                 : English
  58. Default                                  : Yes
  59. Forced                                   : No

  60. Menu
  61. 00:00:00.000                             : en:Chapter 01
  62. 00:06:58.418                             : en:Chapter 02
  63. 00:12:34.045                             : en:Chapter 03
  64. 00:18:52.506                             : en:Chapter 04
  65. 00:22:38.983                             : en:Chapter 05
  66. 00:26:00.017                             : en:Chapter 06
  67. 00:31:01.693                             : en:Chapter 07
  68. 00:39:53.975                             : en:Chapter 08
  69. 00:47:15.624                             : en:Chapter 09
  70. 00:56:10.075                             : en:Chapter 10
  71. 01:01:29.436                             : en:Chapter 11
  72. 01:05:45.066                             : en:Chapter 12
  73. 01:14:23.626                             : en:Chapter 13
  74. 01:19:15.876                             : en:Chapter 14
  75. 01:27:26.366                             : en:Chapter 15
  76. 01:33:22.889                             : en:Chapter 16
复制代码

双生薄荷 Double.Mints.2017.JAPANESE.1080p.BluRay.x264.DTS-FGT 9.24GB-2.png 双生薄荷 Double.Mints.2017.JAPANESE.1080p.BluRay.x264.DTS-FGT 9.24GB-3.png 双生薄荷 Double.Mints.2017.JAPANESE.1080p.BluRay.x264.DTS-FGT 9.24GB-4.png






回复

使用道具 举报

蓝光币
619
发表于 2020-2-2 10:53:17 | 显示全部楼层

其实我一直觉得楼主的品味不错!呵呵!蓝光电影网太棒了!
回复 支持 反对

使用道具 举报

懒得打字嘛,点击右侧快捷回复 【右侧内容,后台自定义】
您需要登录后才可以回帖 登录 | 立即加入

本版积分规则

Archiver|小黑屋| 蓝光电影网 |网站地图

Copyright © 2021 Comsenz Inc. Powered by 蓝光电影网

蓝光电影网

本站内容由用户自主分享和转载自互联网,转载目的在于传递更多信息,并不代表本网赞同其观点和对其真实性负责。

如有侵权、违反国家法律政策行为,请联系我们,我们会第一时间及时清除和处理!

举报反馈邮箱:[email protected]

快速回复 返回顶部 返回列表