找回密码

蓝光电影网

查看: 671|回复: 3

[剧情] 毒。誡 Dealer.Healer.2017.CHINESE.1080p.BluRay.x264.DTS-FGT 9.16GB

[复制链接]
蓝光币
1020
发表于 2020-2-1 17:49:31 | 显示全部楼层 |阅读模式
毒。誡 Dealer.Healer.2017.CHINESE.1080p.BluRay.x264.DTS-FGT 9.16GB-1.png

译  名 毒。诫 / Dealer Healer / 神行太保 / 陈华传
片  名 毒。誡
年  代 2017
产  地 中国大陆 / 中国香港
类  别 剧情 / 行动 / 犯罪
语  言 汉语普通话 / 粤语
上映日期 2017-05-12(中国大陆)
IMDb评分  5.4/10 from 208 users
IMDb链接  https://www.imdb.com/title/tt6900380
豆瓣评分 5.0/10 from 16829 users
豆瓣链接 https://movie.douban.com/subject/26605946/
片  长 100分钟
导  演 刘国昌 Lawrence Ah Mon
编  剧 陈文强 Man Keung Chan / 林惠菊 Huiju Lin
主  演 刘青云 Sean Lau
       林家栋 Ka Tung Lam
       古天乐 Louis Koo
       张晋 Max Zhang
       江一燕 Yiyan Jiang
       谭耀文 Patrick Tam
       吴孟达 Man Tat Ng
       陈观泰 Kuan Tai Chen
       卢海鹏 Hoi-Pang Lo
       楼南光 Billy Lau
       欧锦棠 Stephen Au
       林国斌 Ben Lam
       尹扬明 Yeung Ming Wan
       苗可秀 Nora Miao
       庄思敏 Jacquelin Chong
       张建声 Justin Cheung


标  签 香港 | 犯罪 | 毒品 | 古天乐刘青云 | 剧情 | 2017 | 列传 | 行动

简  介  

  六、七十年月的香港,差人受贿,黑道横行,正是陈华(刘青云饰)与喇叭(林家楝饰)、猫仔(张晋饰)及一班兄弟最风光的日子。
  陈华被视为「慈云山十三太保」之首,气势高涨;还结识了平生至爱可柔(江一燕饰),共度人生最甜蜜的时光。惋惜昙花一现,陈华因私下贩毒而被帮会追杀,幸亏在亦敌亦友的扫毒组组长哈雷(古天乐饰)帮助下,逃诞生天,但却毕竟法网难逃。出狱后,遭遇父亲病逝及女友可柔失落,非常自责的陈华,蓦地憬悟前非,发愤重新做人。他不单积极介入青少年戒毒工作,获得十大杰青声誉;更把喇叭与猫仔拉回正途,又经常脱手补救江湖胶葛,因此深受黑白两道所恭敬。某次于日本列席戒毒讲座后,陈华与可柔在陌头重遇。他一心再续前缘,但又能否轻易为自己的豪情拆弹?
  1. Video
  2. ID                                       : 1
  3. Format                                   : AVC
  4. Format/Info                              : Advanced Video Codec
  5. Format profile                           : [email protected]
  6. Format settings                          : CABAC / 4 Ref Frames
  7. Format settings, CABAC                   : Yes
  8. Format settings, Reference frames        : 4 frames
  9. Codec ID                                 : V_MPEG4/ISO/AVC
  10. Duration                                 : 1 h 40 min
  11. Bit rate                                 : 11.5 Mb/s
  12. Width                                    : 1 920 pixels
  13. Height                                   : 816 pixels
  14. Display aspect ratio                     : 2.35:1
  15. Frame rate mode                          : Constant
  16. Frame rate                               : 24.000 FPS
  17. Color space                              : YUV
  18. Chroma subsampling                       : 4:2:0
  19. Bit depth                                : 8 bits
  20. Scan type                                : Progressive
  21. Bits/(Pixel*Frame)                       : 0.306
  22. Stream size                              : 8.09 GiB (88%)
  23. Title                                    : Dealer.Healer.2017.CHINESE.1080p.BluRay.x264.DTS-FGT
  24. Writing library                          : x264 core 148 r2748 97eaef2
  25. Encoding settings                        : cabac=1 / ref=4 / deblock=1:-2:-2 / analyse=0x3:0x113 / me=umh / subme=9 / psy=1 / psy_rd=1.00:0.15 / mixed_ref=1 / me_range=16 / chroma_me=1 / trellis=2 / 8x8dct=1 / cqm=0 / deadzone=21,11 / fast_pskip=1 / chroma_qp_offset=-3 / threads=24 / lookahead_threads=3 / sliced_threads=0 / nr=0 / decimate=1 / interlaced=0 / bluray_compat=0 / constrained_intra=0 / bframes=3 / b_pyramid=2 / b_adapt=1 / b_bias=0 / direct=3 / weightb=1 / open_gop=0 / weightp=2 / keyint=250 / keyint_min=25 / scenecut=40 / intra_refresh=0 / rc_lookahead=50 / rc=2pass / mbtree=1 / bitrate=11500 / ratetol=1.0 / qcomp=0.60 / qpmin=0 / qpmax=69 / qpstep=4 / cplxblur=20.0 / qblur=0.5 / vbv_maxrate=31250 / vbv_bufsize=31250 / nal_hrd=none / filler=0 / ip_ratio=1.40 / aq=1:1.00
  26. Language                                 : Chinese
  27. Default                                  : Yes
  28. Forced                                   : No

  29. Audio
  30. ID                                       : 2
  31. Format                                   : DTS
  32. Format/Info                              : Digital Theater Systems
  33. Codec ID                                 : A_DTS
  34. Duration                                 : 1 h 40 min
  35. Bit rate mode                            : Constant
  36. Bit rate                                 : 1 509 kb/s
  37. Channel(s)                               : 6 channels
  38. Channel layout                           : C L R Ls Rs LFE
  39. Sampling rate                            : 48.0 kHz
  40. Frame rate                               : 93.750 FPS (512 SPF)
  41. Bit depth                                : 16 bits
  42. Compression mode                         : Lossy
  43. Stream size                              : 1.06 GiB (12%)
  44. Title                                    : Dealer.Healer.2017.CHINESE.1080p.BluRay.x264.DTS-FGT
  45. Language                                 : Chinese
  46. Default                                  : Yes
  47. Forced                                   : No

  48. Text
  49. ID                                       : 3
  50. Format                                   : UTF-8
  51. Codec ID                                 : S_TEXT/UTF8
  52. Codec ID/Info                            : UTF-8 Plain Text
  53. Duration                                 : 1 h 35 min
  54. Bit rate                                 : 41 b/s
  55. Count of elements                        : 1442
  56. Stream size                              : 28.8 KiB (0%)
  57. Language                                 : English
  58. Default                                  : Yes
  59. Forced                                   : No

  60. Menu
  61. 00:00:00.000                             : en:Chapter 01
  62. 00:05:00.083                             : en:Chapter 02
  63. 00:10:40.833                             : en:Chapter 03
  64. 00:14:51.833                             : en:Chapter 04
  65. 00:19:53.708                             : en:Chapter 05
  66. 00:23:57.042                             : en:Chapter 06
  67. 00:27:39.583                             : en:Chapter 07
  68. 00:32:47.833                             : en:Chapter 08
  69. 00:39:39.125                             : en:Chapter 09
  70. 00:45:34.292                             : en:Chapter 10
  71. 00:50:45.875                             : en:Chapter 11
  72. 00:56:48.417                             : en:Chapter 12
  73. 01:02:40.958                             : en:Chapter 13
  74. 01:08:20.708                             : en:Chapter 14
  75. 01:14:09.875                             : en:Chapter 15
  76. 01:19:57.250                             : en:Chapter 16
  77. 01:28:45.833                             : en:Chapter 17
  78. 01:35:38.125                             : en:Chapter 18
复制代码

毒。誡 Dealer.Healer.2017.CHINESE.1080p.BluRay.x264.DTS-FGT 9.16GB-2.png 毒。誡 Dealer.Healer.2017.CHINESE.1080p.BluRay.x264.DTS-FGT 9.16GB-3.png 毒。誡 Dealer.Healer.2017.CHINESE.1080p.BluRay.x264.DTS-FGT 9.16GB-4.png






回复

使用道具 举报

蓝光币
768
发表于 2020-2-1 21:03:29 | 显示全部楼层
谢谢楼主无私分享。
回复 支持 反对

使用道具 举报

蓝光币
768
发表于 2020-2-2 09:40:03 | 显示全部楼层
谢谢楼主无私分享。
回复 支持 反对

使用道具 举报

蓝光币
104
发表于 2020-2-2 22:12:25 | 显示全部楼层
这个片子用dts不能解码,只能用2声道播放
回复 支持 反对

使用道具 举报

懒得打字嘛,点击右侧快捷回复 【右侧内容,后台自定义】
您需要登录后才可以回帖 登录 | 立即加入

本版积分规则

Archiver|小黑屋| 蓝光电影网 |网站地图

Copyright © 2021 Comsenz Inc. Powered by 蓝光电影网

蓝光电影网

本站内容由用户自主分享和转载自互联网,转载目的在于传递更多信息,并不代表本网赞同其观点和对其真实性负责。

如有侵权、违反国家法律政策行为,请联系我们,我们会第一时间及时清除和处理!

举报反馈邮箱:[email protected]

快速回复 返回顶部 返回列表