找回密码

蓝光电影网

查看: 525|回复: 2

[剧情] 关于我母亲的一切 All.About.My.Mother.1999.SPANISH.1080p.BluRay.x264.DTS-FGT 9.24GB

[复制链接]
蓝光币
1022
发表于 2020-2-1 17:52:03 | 显示全部楼层 |阅读模式
关于我母亲的一切 All.About.My.Mother.1999.SPANISH.1080p.BluRay.x264.DTS-FGT 9.24GB-1.png

译  名 关于我母亲的一切 / All About My Mother / 我的母亲(台) / 论尽我阿妈(港)
片  名 Todo sobre mi madre
年  代 1999
产  地 西班牙 / 法国
类  别 剧情
语  言 西班牙语 / 加泰罗尼亚语 / 英语
上映日期 1999-04-08(西班牙首映) / 1999-04-16(西班牙) / 1999-05-15(戛纳电影节) / 1999-05-19(法国)
IMDb评分  7.8/10 from 83644 users
IMDb链接  https://www.imdb.com/title/tt0185125
豆瓣评分 8.5/10 from 45319 users
豆瓣链接 https://movie.douban.com/subject/1291937/
片  长 101分钟
导  演 佩德罗·阿莫多瓦 Pedro Almodóvar
编  剧 佩德罗·阿莫多瓦 Pedro Almodóvar
主  演 丝莉亚·洛芙 Cecilia Roth
       玛丽莎·佩雷德斯 Marisa Paredes
       坎德拉·佩娜 Candela Pe?a
       安东尼亚·圣·璜 Antonia San Juan
       佩内洛普·克鲁兹 Penélope Cruz
       罗莎·玛丽亚·萨尔达 Rosa Maria Sardà
       费尔南多·费尔南·戈麦斯 Fernando Fernán Gómez
       托尼·坎托 Toni Cantó
       埃罗·阿索林 Eloy Azorín
       卡洛斯·洛萨诺 Carlos Lozano
       费尔南多·古林 Fernando Guillén
       曼努埃尔·莫龙 Manuel Morón
       乔斯·路易斯·托里霍 José Luis Torrijo
       胡安·乔斯·奥特圭 Juan José Otegui
       卡门·巴拉格 Carmen Balagué


标  签 西班牙 | 女性 | 剧情 | 1999 | 文艺 | 人性 | 法国 | 女权

简  介  

  玛努埃拉(丝莉亚 洛芙 饰)的丈夫在儿子诞生前就分开了妻子,玛努埃拉成为了单身妈妈,带着儿子埃斯特班来到马德里生活。儿子从不晓得爸爸的工作,玛努埃拉只好对儿子说父亲已经过世。但是,儿子毕竟不相信。他在日志本里静静写下对父亲的驰念。
  车祸来得那末忽然,儿子被一辆劈面撞来的汽车夺走了生命。母亲哀痛不已,决议去找孩子的父亲洛拉,完成儿子心愿。但是她却得知,洛拉已经换装成女人,当了妓女,而且染上了艾滋病。更不幸的是,修女罗萨(佩内洛普 饰)怀上了洛拉的孩子。玛努埃拉留在罗萨身旁照顾她,罗萨诞下的婴儿也取自己儿子埃斯特班的名字,磨难的日子终究有了希望--这个新生儿居然逃过了艾滋的噩运。

获奖情况  

  第72届奥斯卡金像奖(2000)
  最好外语片

  第52届戛纳电影节(1999)
  主比赛单元 金棕榈奖(提名) 佩德罗·阿莫多瓦
  主比赛单元 最好导演 佩德罗·阿莫多瓦
  天主教人性精神奖 佩德罗·阿莫多瓦

  第53届英国电影学院奖(2000)
  电影奖 最好导演 佩德罗·阿莫多瓦
  电影奖 最好原创剧本(提名) 佩德罗·阿莫多瓦
  电影奖 最好非英语片 阿古斯丁·阿莫多瓦 / 佩德罗·阿莫多瓦
  1. Video
  2. ID                                       : 1
  3. Format                                   : AVC
  4. Format/Info                              : Advanced Video Codec
  5. Format profile                           : [email protected]
  6. Format settings                          : CABAC / 4 Ref Frames
  7. Format settings, CABAC                   : Yes
  8. Format settings, Reference frames        : 4 frames
  9. Codec ID                                 : V_MPEG4/ISO/AVC
  10. Duration                                 : 1 h 41 min
  11. Bit rate                                 : 11.5 Mb/s
  12. Width                                    : 1 920 pixels
  13. Height                                   : 816 pixels
  14. Display aspect ratio                     : 2.35:1
  15. Frame rate mode                          : Constant
  16. Frame rate                               : 23.976 (24000/1001) FPS
  17. Color space                              : YUV
  18. Chroma subsampling                       : 4:2:0
  19. Bit depth                                : 8 bits
  20. Scan type                                : Progressive
  21. Bits/(Pixel*Frame)                       : 0.306
  22. Stream size                              : 8.16 GiB (88%)
  23. Title                                    : All.About.My.Mother.1999.SPANISH.1080p.BluRay.x264.DTS-FGT
  24. Writing library                          : x264 core 148 r2795M aaa9aa8
  25. Encoding settings                        : cabac=1 / ref=4 / deblock=1:-2:-2 / analyse=0x3:0x113 / me=umh / subme=9 / psy=1 / psy_rd=1.00:0.15 / mixed_ref=1 / me_range=16 / chroma_me=1 / trellis=2 / 8x8dct=1 / cqm=0 / deadzone=21,11 / fast_pskip=1 / chroma_qp_offset=-3 / threads=24 / lookahead_threads=3 / sliced_threads=0 / nr=0 / decimate=1 / interlaced=0 / bluray_compat=0 / constrained_intra=0 / bframes=3 / b_pyramid=2 / b_adapt=1 / b_bias=0 / direct=3 / weightb=1 / open_gop=0 / weightp=2 / keyint=250 / keyint_min=25 / scenecut=40 / intra_refresh=0 / rc_lookahead=50 / rc=2pass / mbtree=1 / bitrate=11500 / ratetol=1.0 / qcomp=0.60 / qpmin=0 / qpmax=69 / qpstep=4 / cplxblur=20.0 / qblur=0.5 / vbv_maxrate=31250 / vbv_bufsize=31250 / nal_hrd=none / filler=0 / ip_ratio=1.40 / aq=1:1.00
  26. Language                                 : Spanish
  27. Default                                  : Yes
  28. Forced                                   : No

  29. Audio
  30. ID                                       : 2
  31. Format                                   : DTS
  32. Format/Info                              : Digital Theater Systems
  33. Codec ID                                 : A_DTS
  34. Duration                                 : 1 h 41 min
  35. Bit rate mode                            : Constant
  36. Bit rate                                 : 1 509 kb/s
  37. Channel(s)                               : 6 channels
  38. Channel layout                           : C L R Ls Rs LFE
  39. Sampling rate                            : 48.0 kHz
  40. Frame rate                               : 93.750 FPS (512 SPF)
  41. Bit depth                                : 24 bits
  42. Compression mode                         : Lossy
  43. Stream size                              : 1.07 GiB (12%)
  44. Title                                    : All.About.My.Mother.1999.SPANISH.1080p.BluRay.x264.DTS-FGT
  45. Language                                 : Spanish
  46. Default                                  : Yes
  47. Forced                                   : No

  48. Text
  49. ID                                       : 3
  50. Format                                   : UTF-8
  51. Codec ID                                 : S_TEXT/UTF8
  52. Codec ID/Info                            : UTF-8 Plain Text
  53. Duration                                 : 1 h 34 min
  54. Bit rate                                 : 61 b/s
  55. Count of elements                        : 1350
  56. Stream size                              : 42.3 KiB (0%)
  57. Language                                 : English
  58. Default                                  : Yes
  59. Forced                                   : No

  60. Menu
  61. 00:00:00.000                             : en:Todo sobre Eva
  62. 00:08:31.803                             : en:A Streetcar Named Desire
  63. 00:15:21.087                             : en:Transplant
  64. 00:19:41.430                             : en:Madrid to Barcelona
  65. 00:29:01.907                             : en:Sister Rosa
  66. 00:36:44.828                             : en:Nina and Huma
  67. 00:46:11.185                             : en:Manuela\'s story
  68. 00:51:44.643                             : en:Two weeks later
  69. 01:09:55.942                             : en:One month later
  70. 01:16:28.501                             : en:Agrado\'s story
  71. 01:20:57.936                             : en:A promise to Rosa
  72. 01:33:43.117                             : en:"To my mother"
复制代码

关于我母亲的一切 All.About.My.Mother.1999.SPANISH.1080p.BluRay.x264.DTS-FGT 9.24GB-2.png 关于我母亲的一切 All.About.My.Mother.1999.SPANISH.1080p.BluRay.x264.DTS-FGT 9.24GB-3.png 关于我母亲的一切 All.About.My.Mother.1999.SPANISH.1080p.BluRay.x264.DTS-FGT 9.24GB-4.png






回复

使用道具 举报

懒得打字嘛,点击右侧快捷回复 【右侧内容,后台自定义】
您需要登录后才可以回帖 登录 | 立即加入

本版积分规则

Archiver|小黑屋| 蓝光电影网 |网站地图

Copyright © 2021 Comsenz Inc. Powered by 蓝光电影网

蓝光电影网

本站内容由用户自主分享和转载自互联网,转载目的在于传递更多信息,并不代表本网赞同其观点和对其真实性负责。

如有侵权、违反国家法律政策行为,请联系我们,我们会第一时间及时清除和处理!

举报反馈邮箱:[email protected]

快速回复 返回顶部 返回列表