找回密码

蓝光电影网

查看: 346|回复: 4

[剧情] 告别汉堡 Gigantic.1999.GERMAN.1080p.BluRay.x264.DTS-FGT 6.98GB

[复制链接]
蓝光币
1020
发表于 2020-2-1 17:53:02 | 显示全部楼层 |阅读模式
离别汉堡 Gigantic.1999.GERMAN.1080p.BluRay.x264.DTS-FGT 6.98GB-1.png

译  名 离别汉堡 / Gigantic / Gigantics
片  名 Absolute Giganten
年  代 1999
产  地 德国
类  别 剧情 / 笑剧 / 行动 / 恋爱
语  言 德语
上映日期 1999-09-30
IMDb评分  7.6/10 from 4141 users
IMDb链接  https://www.imdb.com/title/tt0177507
豆瓣评分 7.3/10 from 288 users
豆瓣链接 https://movie.douban.com/subject/1760316/
片  长 80 分钟
导  演 Sebastian Schipper
编  剧 塞巴斯蒂安·施普尔 Sebastian Schipper
主  演 弗兰克·捷林 Frank Giering
       Florian Lukas
       Antoine Monot Jr.
       Julia Hummer
       Jochen Nickel
       Albert Kitzl


标  签 德国 | 德国电影 | 青春 | 青春/长大 | 德语 | 1999 | 剧情 | 笑剧

简  介  

  住在汉堡的三个好朋友沃尔特、里科和弗洛伊德天天的生活都离不开在摩天大楼和快餐店。他们三人都只是二十岁出头,相互胡想着过上纷歧样的生活。忽然有一天,弗洛伊德在一艘行将驶往新加坡货船上找到一份工作。因而临动身前一晚,三个好朋友聚在一路度过平生中最难忘的夜晚。这是一部关于90年月友谊的伤感笑剧。
  1. Video
  2. ID                                       : 1
  3. Format                                   : AVC
  4. Format/Info                              : Advanced Video Codec
  5. Format profile                           : [email protected]
  6. Format settings                          : CABAC / 4 Ref Frames
  7. Format settings, CABAC                   : Yes
  8. Format settings, Reference frames        : 4 frames
  9. Codec ID                                 : V_MPEG4/ISO/AVC
  10. Duration                                 : 1 h 16 min
  11. Bit rate                                 : 11.5 Mb/s
  12. Width                                    : 1 920 pixels
  13. Height                                   : 1 036 pixels
  14. Display aspect ratio                     : 1.85:1
  15. Frame rate mode                          : Constant
  16. Frame rate                               : 25.000 FPS
  17. Color space                              : YUV
  18. Chroma subsampling                       : 4:2:0
  19. Bit depth                                : 8 bits
  20. Scan type                                : Progressive
  21. Bits/(Pixel*Frame)                       : 0.231
  22. Stream size                              : 6.17 GiB (88%)
  23. Title                                    : Absolute.Giganten.1999.GERMAN.1080p.BluRay.x264.DTS-FGT
  24. Writing library                          : x264 core 148 r2795M aaa9aa8
  25. Encoding settings                        : cabac=1 / ref=4 / deblock=1:-2:-2 / analyse=0x3:0x113 / me=umh / subme=9 / psy=1 / psy_rd=1.00:0.15 / mixed_ref=1 / me_range=16 / chroma_me=1 / trellis=2 / 8x8dct=1 / cqm=0 / deadzone=21,11 / fast_pskip=1 / chroma_qp_offset=-3 / threads=24 / lookahead_threads=3 / sliced_threads=0 / nr=0 / decimate=1 / interlaced=0 / bluray_compat=0 / constrained_intra=0 / bframes=3 / b_pyramid=2 / b_adapt=1 / b_bias=0 / direct=3 / weightb=1 / open_gop=0 / weightp=2 / keyint=250 / keyint_min=25 / scenecut=40 / intra_refresh=0 / rc_lookahead=50 / rc=2pass / mbtree=1 / bitrate=11500 / ratetol=1.0 / qcomp=0.60 / qpmin=0 / qpmax=69 / qpstep=4 / cplxblur=20.0 / qblur=0.5 / vbv_maxrate=31250 / vbv_bufsize=31250 / nal_hrd=none / filler=0 / ip_ratio=1.40 / aq=1:1.00
  26. Language                                 : German
  27. Default                                  : Yes
  28. Forced                                   : No

  29. Audio
  30. ID                                       : 2
  31. Format                                   : DTS
  32. Format/Info                              : Digital Theater Systems
  33. Codec ID                                 : A_DTS
  34. Duration                                 : 1 h 16 min
  35. Bit rate mode                            : Constant
  36. Bit rate                                 : 1 509 kb/s
  37. Channel(s)                               : 6 channels
  38. Channel layout                           : C L R Ls Rs LFE
  39. Sampling rate                            : 48.0 kHz
  40. Frame rate                               : 93.750 FPS (512 SPF)
  41. Bit depth                                : 16 bits
  42. Compression mode                         : Lossy
  43. Stream size                              : 829 MiB (12%)
  44. Title                                    : Absolute.Giganten.1999.GERMAN.1080p.BluRay.x264.DTS-FGT
  45. Language                                 : German
  46. Default                                  : Yes
  47. Forced                                   : No

  48. Text
  49. ID                                       : 3
  50. Format                                   : UTF-8
  51. Codec ID                                 : S_TEXT/UTF8
  52. Codec ID/Info                            : UTF-8 Plain Text
  53. Duration                                 : 1 h 8 min
  54. Bit rate                                 : 36 b/s
  55. Count of elements                        : 465
  56. Stream size                              : 18.4 KiB (0%)
  57. Language                                 : English
  58. Default                                  : Yes
  59. Forced                                   : No

  60. Menu
  61. 00:00:00.000                             : en:Chapter 01
  62. 00:05:40.560                             : en:Chapter 02
  63. 00:10:31.320                             : en:Chapter 03
  64. 00:19:11.160                             : en:Chapter 04
  65. 00:27:53.280                             : en:Chapter 05
  66. 00:33:50.120                             : en:Chapter 06
  67. 00:38:59.360                             : en:Chapter 07
  68. 00:43:43.040                             : en:Chapter 08
  69. 00:46:45.080                             : en:Chapter 09
  70. 00:57:30.200                             : en:Chapter 10
  71. 01:05:11.160                             : en:Chapter 11
  72. 01:11:33.240                             : en:Chapter 12
复制代码

离别汉堡 Gigantic.1999.GERMAN.1080p.BluRay.x264.DTS-FGT 6.98GB-2.png 离别汉堡 Gigantic.1999.GERMAN.1080p.BluRay.x264.DTS-FGT 6.98GB-3.png 离别汉堡 Gigantic.1999.GERMAN.1080p.BluRay.x264.DTS-FGT 6.98GB-4.png






回复

使用道具 举报

蓝光币
590
发表于 2020-2-2 16:23:40 | 显示全部楼层
感谢楼主分享!
回复 支持 反对

使用道具 举报

懒得打字嘛,点击右侧快捷回复 【右侧内容,后台自定义】
您需要登录后才可以回帖 登录 | 立即加入

本版积分规则

Archiver|小黑屋| 蓝光电影网 |网站地图

Copyright © 2021 Comsenz Inc. Powered by 蓝光电影网

蓝光电影网

本站内容由用户自主分享和转载自互联网,转载目的在于传递更多信息,并不代表本网赞同其观点和对其真实性负责。

如有侵权、违反国家法律政策行为,请联系我们,我们会第一时间及时清除和处理!

举报反馈邮箱:[email protected]

快速回复 返回顶部 返回列表